Мой сосед Тоторо / Tonari no Totoro / My Neighbor Totoro [Movie] [Без хардсаба] [RUS (int), JAP+SUB] [1988 г., приключения, комедия, сказка, драма, BDRip] [1040p]

Ответить на тему
 

Deadушка ®

Стаж: 6 лет 6 месяцев

Сообщений: 78

Симпатии: 89

-- Страна: Япония
Год выпуска: 1988 г.
Жанр: приключения, комедия, сказка, драма
Тип: Movie
Продолжительность: 86 мин.-Режиссер: Миядзаки Хаяо
Студия: Studio Ghibli (подробнее...)
-Описание: В мае в начале лета, когда ярко светило солнце, а небо было синее, две сестры - Сацуки и Мэй - переехали с папой на трёхколёсном грузовичке загород, чтобы жить здесь в скрипучем старом доме.
Но в этой самой обыкновенной с виду деревне водились необыкновенные звери. От Мэй с её кипучим любопытством не укроется ничто интересное. И однажды она с ними встречается, с удивительными существами, целым семейством Тоторо.
В Японии ещё есть такие удивительные звери... Наверное.-Качество: BDRip (HDWinG)
Тип релиза: Без хардсаба
Формат видео: AVC-Аудио 1 (Russian): [Многоголосый закадровый Ruscico] AC-3 / 2 ch / 48 kHz / 192 kbps / 16 bits
Аудио 2 (Russian): [Киномания] AAC / 2 ch / 48 kHz / 192 kbps
Аудио 3 (Russian): [Tycoon] AAC / 2 ch / 48 kHz / 192 kbps
Аудио 4 (Russian): [А.Толстобров] AAC / 2 ch / 48 kHz / 192 kbps
Аудио 5 (Японский): AC-3 / 2 ch / 48 kHz / 448 kbps / 16 bits-Субтитры (Russian): ASS, встроенные | Полные
-

Доп. информация

- В кинотеатрах Японии фильм вышел двойным сеансом с "Могилой светлячков" Исао Такахаты, работа над которым шла на студии одновременно с "Тоторо". Специально для этого штат студии был разбит на две команды. При этом изначально ставки на успех в прокате в большей степени делались на "Могилу светлячков", как образовательный проект для молодёжи, нежели на сказочного "Тоторо". Тем не менее, со временем детальные и реалистичные задние планы "Тоторо", которые создал художник Казуо Ога, стали отличительной чертой всех фильмов Ghibli. Подробнее о его работе над фильмами Ghibli рассказывает документальный фильм Oga Kazuo Exhibition: Ghibli No Eshokunin (Выставка "Человек, нарисовавший лес Тоторо", Казуо Ога: мастер образов Studio Ghibli).
• Не смотря на то, что Миязаки не любит продолжения, специально для Музея Ghibli он снял короткометражку о новой встрече Мэй с обитателями леса Тоторо: "Мэй и Котобусёнок" (Mei to Konekobasu).
• "Чернушки" снова появляются в фильме "Сэн и Тихиро: Унесённые призраками".
-

Подробные тех. данные

General
Unique ID                      : 237604765024051294644535260578113881195 (0xB2C1036058E0F492ACB5A94DC30F846B)
Complete name                  : D:\анимэ\Tonari no Totoro [BDRip, 1040p]\Tonari.no.Totoro.1988.BDRip.(HDWinG).1040p.Dolby.mkv
Format                         : Matroska
Format version                 : Version 2
File size                      : 4.37 GiB
Duration                       : 1h 26mn
Overall bit rate               : 7 243 Kbps
Encoded date                   : UTC 2012-02-20 07:33:05
Writing application            : mkvmerge v5.3.0 ('I could have danced') built on Feb  9 2012 10:38:07
Writing library                : libebml v1.2.3 + libmatroska v1.3.0
Video
ID                             : 1
Format                         : AVC
Format/Info                    : Advanced Video Codec
Format profile                 : [email protected]
Format settings, CABAC         : Yes
Format settings, ReFrames      : 4 frames
Codec ID                       : V_MPEG4/ISO/AVC
Duration                       : 1h 26mn
Nominal bit rate               : 6 400 Kbps
Width                          : 1 920 pixels
Height                         : 1 040 pixels
Display aspect ratio           : 16:9
Frame rate mode                : Variable
Frame rate                     : 23.976 fps
Color space                    : YUV
Chroma subsampling             : 4:2:0
Bit depth                      : 8 bits
Scan type                      : Progressive
Bits/(Pixel*Frame)             : 0.134
Title                          : Rip by KeT4yn
Writing library                : x264 core 116 r2019M 9cc407d
Encoding settings              : cabac=1 / ref=4 / deblock=0:-1:-1 / analyse=0x3:0x133 / me=umh / subme=10 / psy=1 / psy_rd=0.40:0.10 / mixed_ref=1 / me_range=32 / chroma_me=1 / trellis=2 / 8x8dct=1 / cqm=0 / deadzone=21,11 / fast_pskip=0 / chroma_qp_offset=-3 / threads=12 / sliced_threads=0 / nr=0 / decimate=1 / interlaced=0 / bluray_compat=0 / constrained_intra=0 / bframes=2 / b_pyramid=2 / b_adapt=2 / b_bias=0 / direct=3 / weightb=1 / open_gop=0 / weightp=2 / keyint=230 / keyint_min=23 / scenecut=40 / intra_refresh=0 / rc_lookahead=60 / rc=2pass / mbtree=1 / bitrate=6400 / ratetol=1.0 / qcomp=0.60 / qpmin=0 / qpmax=69 / qpstep=4 / cplxblur=20.0 / qblur=0.5 / ip_ratio=1.40 / aq=1:0.60
Language                       : Japanese
Default                        : Yes
Forced                         : No
Audio #1
ID                             : 2
Format                         : AC-3
Format/Info                    : Audio Coding 3
Mode extension                 : CM (complete main)
Codec ID                       : A_AC3
Duration                       : 1h 26mn
Bit rate mode                  : Constant
Bit rate                       : 192 Kbps
Channel(s)                     : 2 channels
Channel positions              : Front: L R
Sampling rate                  : 48.0 KHz
Bit depth                      : 16 bits
Compression mode               : Lossy
Stream size                    : 119 MiB (3%)
Language                       : Russian
Default                        : Yes
Forced                         : No
Audio #2
ID                             : 3
Format                         : AAC
Format/Info                    : Advanced Audio Codec
Format profile                 : HE-AAC / LC
Codec ID                       : A_AAC
Duration                       : 1h 26mn
Channel(s)                     : 2 channels
Channel positions              : Front: L R
Sampling rate                  : 48.0 KHz / 24.0 KHz
Compression mode               : Lossy
Delay relative to video        : 31ms
Language                       : Russian
Default                        : No
Forced                         : No
Audio #3
ID                             : 4
Format                         : AAC
Format/Info                    : Advanced Audio Codec
Format profile                 : LC
Codec ID                       : A_AAC
Duration                       : 1h 26mn
Channel(s)                     : 2 channels
Channel positions              : Front: L R
Sampling rate                  : 48.0 KHz
Compression mode               : Lossy
Delay relative to video        : 9ms
Language                       : Russian
Default                        : No
Forced                         : No
Audio #4
ID                             : 5
Format                         : AAC
Format/Info                    : Advanced Audio Codec
Format profile                 : HE-AAC / LC
Codec ID                       : A_AAC
Duration                       : 1h 26mn
Channel(s)                     : 2 channels
Channel positions              : Front: L R
Sampling rate                  : 48.0 KHz / 24.0 KHz
Compression mode               : Lossy
Delay relative to video        : 31ms
Language                       : Russian
Default                        : No
Forced                         : No
Audio #5
ID                             : 6
Format                         : AC-3
Format/Info                    : Audio Coding 3
Mode extension                 : CM (complete main)
Codec ID                       : A_AC3
Duration                       : 1h 26mn
Bit rate mode                  : Constant
Bit rate                       : 448 Kbps
Channel(s)                     : 2 channels
Channel positions              : Front: L R
Sampling rate                  : 48.0 KHz
Bit depth                      : 16 bits
Compression mode               : Lossy
Stream size                    : 277 MiB (6%)
Language                       : Japanese
Default                        : No
Forced                         : No
Text
ID                             : 7
Format                         : UTF-8
Codec ID                       : S_TEXT/UTF8
Codec ID/Info                  : UTF-8 Plain Text
Language                       : Russian
Default                        : Yes
Forced                         : No

Скриншоты



Имею на харде коллекцию от Studio Ghibli

Кому что интересно, отпишитесь!
Наусика из Долины ветров (1984)
Небесный замок Лапута (1986)
Мои соседи Ямада (1999)
Добывайка Арриэтти (2010)
Шёпот сердца (1995)
Бродячий замок Хаула (2004)
Сказания Земноморья (2006)
Со склонов Кокурико (2011)
Могила светлячков (1988)
Мой сосед Тоторо (1988)
Ведьмина служба доставки (1989)
Порко Россо (1992)
Принцесса Мононокэ (1997)
Сказание о принцессе Кагуя (2013)
On Your Mark (1995)
Воспоминания Марни (2014)
Рыбка Поньо [Переиздание] (2008)
Ветер крепчает (2013)
Унесённые призраками (2001)
Ещё вчера (1991)
Здесь слышен океан (1993)
Dore Dore No Uta (2005)


Последний раз редактировалось: Deadушка (2015-04-24 21:35), всего редактировалось 2 раз(а)

Создавать темы 12-Апр-2015 13:44

[Профиль]  [ЛС] 
Показать сообщения:    
Ответить на тему

Текущее время: 22-Окт 07:58

Часовой пояс: UTC + 5



Вы не можете начинать темы
Вы не можете отвечать на сообщения
Вы не можете редактировать свои сообщения
Вы не можете удалять свои сообщения
Вы не можете голосовать в опросах
Вы не можете прикреплять файлы к сообщениям
Вы не можете скачивать файлы