Притворная Любовь / Nisekoi (Симбо Акиюки) [TV-2] [00 - 12 из 12] [2015 г., романтика, комедия] [HDTVRip 720p] [AniDub]

Страницы :  1, 2  След.

Ответить на тему
 

Sarashiki ®

Стаж: 2 года 7 месяцев

Сообщений: 85

Симпатии: 56

Притворная Любовь / Nisekoi- Год: 2015
Жанр: комедия, романтика
Страна: Япония
Количество серий: 12
Продолжительность: 25 мин.
Дата выпуска: c 10.04.2015-Режиссер: Симбо Акиюки
Автор оригинала / Сценарист: Коми Наоси
Студия: Shaft-Озвучивание: JAM, Oriko
Перевод: Наталия Ишова, Enzexanadu
Тайминг и работа со звуком: Deven, SuNRiz-Описание: Раку Итидзё в детстве дружил с одной девочкой. Ребята обменялись детскими мечтами и обещаниями, а потом расстались, причем Раку в прямом смысле запечатал воспоминания на замок, который повесил на шею, а ключ оставил избраннице. Почему он так поступил? Потому что сын и наследник главы клана Сюэй-гуми не собирается заниматься ерундой, а хочет стать юристом – их, в отличие от старомодных якудза, абсолютно все боятся! Так что Итидзё не до сантиментов – учиться надо, что он и делал до того дня, когда встретил в школе Титогэ Кирисаки – резкую и взбалмошную красавицу-полукровку, начавшую знакомство с удара коленом в лоб. И это белокурое создание оказалось его будущей девушкой!
Увы, иначе никак, ибо Титогэ – дочь босса банды «Улей», вторгнувшейся на территорию Сюэй-гуми. Хотя оба лидера – старые друзья, ситуация выходит из-под контроля, и единственный способ избежать уличной войны – объявить, что наследники обоих кланов полюбили друг друга, а стало быть и якудза, и заезжие гангстеры теперь одна большая семья. Многие в бандитской среде усомнились в такой постановке вопроса, а значит, ребятам придется постараться, пусть через «не могу»! Впрочем, даже имитируя любовь, Раку и Титогэ все равно начали общаться, становиться ближе друг другу, а тут выяснилось, что у девушки с детства хранится интересный ключик. Но схожий ключик есть и у их одноклассницы Онодэры, а потом еще кое-кто появился… Да они что, в Японии, все с ключами ходят?!-Video: MPEG4 Video (H264) 1280x720 23.98fps
Audio: AAC 48000Hz stereo 1536kbps-

MI

Video
ID : 1
Format : AVC
Format/Info : Advanced Video Codec
Format profile : [email protected]
Format settings, CABAC : Yes
Format settings, ReFrames : 4 frames
Format settings, GOP : M=1, N=13
Codec ID : avc1
Codec ID/Info : Advanced Video Coding
Duration : 25mn 29s
Bit rate mode : Variable
Bit rate : 2 422 Kbps
Maximum bit rate : 14.4 Mbps
Width : 1 280 pixels
Height : 720 pixels
Display aspect ratio : 16:9
Frame rate mode : Constant
Frame rate : 23.976 fps
Color space : YUV
Chroma subsampling : 4:2:0
Bit depth : 8 bits
Scan type : Progressive
Bits/(Pixel*Frame) : 0.110
Stream size : 442 MiB (93%)
Writing library : x264 core 133 r2334 a3ac64b
Encoding settings : cabac=1 / ref=3 / deblock=1:0:0 / analyse=0x3:0x113 / me=hex / subme=7 / psy=1 / psy_rd=1.00:0.00 / mixed_ref=1 / me_range=16 / chroma_me=1 / trellis=1 / 8x8dct=1 / cqm=0 / deadzone=21,11 / fast_pskip=1 / chroma_qp_offset=-2 / threads=12 / lookahead_threads=2 / sliced_threads=0 / nr=0 / decimate=1 / interlaced=0 / bluray_compat=0 / constrained_intra=0 / bframes=3 / b_pyramid=2 / b_adapt=1 / b_bias=0 / direct=1 / weightb=1 / open_gop=0 / weightp=2 / keyint=250 / keyint_min=23 / scenecut=40 / intra_refresh=0 / rc_lookahead=40 / rc=crf / mbtree=1 / crf=19.5 / qcomp=0.60 / qpmin=0 / qpmax=69 / qpstep=4 / ip_ratio=1.40 / aq=1:1.00
Encoded date : UTC 2015-04-03 15:24:58
Tagged date : UTC 2015-04-12 16:10:50
Audio
ID : 2
Format : AAC
Format/Info : Advanced Audio Codec
Format profile : Main
Codec ID : 40
Duration : 25mn 29s
Bit rate mode : Variable
Bit rate : 192 Kbps
Maximum bit rate : 196 Kbps
Channel(s) : 41 channels
Channel positions : Front: 17, Side: 5, Back: 17, LFE= 2
Sampling rate : 22.05 KHz
Compression mode : Lossy
Stream size : 35.0 MiB (7%)
Language : Russian
Encoded date : UTC 2015-04-12 16:10:47
Tagged date : UTC 2015-04-12 16:10:50

Скриншоты





Последний раз редактировалось: Sarashiki (2015-07-06 22:40), всего редактировалось 14 раз(а)

Создавать темы 13-Апр-2015 00:54

[Профиль]  [ЛС] 

Monroe

Стаж: 4 года 4 месяца

Сообщений: 220

Симпатии: 62

Внимание Спойлер!
Появиться новый персонаж

Создавать темы 14-Апр-2015 11:36

[Профиль]  [ЛС] 

TimaK

Стаж: 6 лет 5 месяцев

Сообщений: 129

Симпатии: 23

тут и так гарем и еще новая девушка?


Последний раз редактировалось: TimaK (2015-04-14 13:12), всего редактировалось 1 раз

Создавать темы 14-Апр-2015 12:07

[Профиль]  [ЛС] 

Alex_38

Стаж: 5 лет 7 месяцев

Сообщений: 336

Симпатии: 37

Cпойлер

Hовая девушка - сестренка Онодеры (Хару), которая вроде как влюблена в ГГ, но и одновременно ненавидит его.

Создавать темы 16-Апр-2015 11:09

[Профиль]  [ЛС] 

Seven_Sky

Стаж: 6 лет 9 месяцев

Сообщений: 431

Симпатии: 43

Да ладно? Уже второй сезон, как быстро пролетело время. Спасибо ТС.

Создавать темы 16-Апр-2015 11:33

[Профиль]  [ЛС] 

Sarashiki ®

Стаж: 2 года 7 месяцев

Сообщений: 85

Симпатии: 56

2-серия

Создавать темы 19-Апр-2015 20:40

[Профиль]  [ЛС] 

Sarashiki ®

Стаж: 2 года 7 месяцев

Сообщений: 85

Симпатии: 56

3 серия

Создавать темы 30-Апр-2015 10:34

[Профиль]  [ЛС] 

Sarashiki ®

Стаж: 2 года 7 месяцев

Сообщений: 85

Симпатии: 56

4- серия

Создавать темы 03-Май-2015 19:49

[Профиль]  [ЛС] 

Sarashiki ®

Стаж: 2 года 7 месяцев

Сообщений: 85

Симпатии: 56

5- серия

Создавать темы 12-Май-2015 09:39

[Профиль]  [ЛС] 

Sarashiki ®

Стаж: 2 года 7 месяцев

Сообщений: 85

Симпатии: 56

6- серия

Создавать темы 19-Май-2015 19:00

[Профиль]  [ЛС] 

kolin 2

Стаж: 5 лет 9 месяцев

Сообщений: 60

Симпатии: 1

Раздачи пожалуйста!!!

Создавать темы 24-Май-2015 20:07

[Профиль]  [ЛС] 

Sarashiki ®

Стаж: 2 года 7 месяцев

Сообщений: 85

Симпатии: 56

7- серия

Создавать темы 26-Май-2015 09:19

[Профиль]  [ЛС] 

Sarashiki ®

Стаж: 2 года 7 месяцев

Сообщений: 85

Симпатии: 56

8, 9- серия

Создавать темы 09-Июн-2015 09:35

[Профиль]  [ЛС] 

Sarashiki ®

Стаж: 2 года 7 месяцев

Сообщений: 85

Симпатии: 56

10- серия

Создавать темы 21-Июн-2015 03:31

[Профиль]  [ЛС] 

SNIL

Стаж: 5 лет 9 месяцев

Сообщений: 2624

Симпатии: 341

11

Создавать темы 01-Июл-2015 17:52

[Профиль]  [ЛС] 
Показать сообщения:    
Ответить на тему

Текущее время: 24-Окт 11:01

Часовой пояс: UTC + 5



Вы не можете начинать темы
Вы не можете отвечать на сообщения
Вы не можете редактировать свои сообщения
Вы не можете удалять свои сообщения
Вы не можете голосовать в опросах
Вы не можете прикреплять файлы к сообщениям
Вы не можете скачивать файлы