Осведомитель / Je-bo-ja (Сунрё Им) [2014, Корея Южная, драма, детектив, WEB-DLRip] DVO (DeadSno & den904)

Ответить на тему
 

lotto ®

Стаж: 7 лет 10 месяцев

Сообщений: 221

Симпатии: 409

Осведомитель / Je-bo-ja-- Страна: Корея Южная
Жанр: драма, детектив
Год выпуска: 2014
Продолжительность: 01:53:51
Перевод: Любительский (двухголосый закадровый) DeadSno & den904
Cубтитры: нет--Режиссер: Сунрё Им
В ролях: Пак Хэ Иль, Kyeong-Yeong Lee, Ю Ен Сок, Пак Вон Сан, Рю Хён Кён, Ким Пёль, Ли Ми-до--Описание: Продюсер ток-шоу отчаянно пытается найти сенсацию. Однажды, он получает сообщение, что самая большая и популярная клиника в Корее «The Woman Medical», занимающаяся вопросами излечения бесплодия, покупает яйцеклетки незаконно. Почувствовав, что эта новость принесет ему популярность, Мин Чхоль начинает расследование.
Он полон изумления, узнав, что в этом деле замешан доктор Ли, стоявший у истоков изучения стволовых клеток. При полной поддержке правительства доктор Ли является не только надежда неизлечимых больных, но и национальным героем. Стоя на распутье, не решаясь трогать эту большую фигуру в мире научной медицины, он получает анонимный звонок сотрудника лаборатории доктора Ли и узнает еще больше об этом деле. ..-- --Качество видео: WEB-DLRip
Формат видео: AVI
Видео: XviD, 720 x 304, 1656 kbps, 23.975 fps
Аудио: AC3, 48 KHz, 2 ch, 192 kbps (русский, двухголосый)

MediaInfo

General
Complete name : \Whistleblower.2014.WED-DLRip.avi
Format : AVI
Format/Info : Audio Video Interleave
File size : 1.48 GiB
Duration : 1h 53mn
Overall bit rate : 1 858 Kbps
Movie name : Je-bo-ja
Writing application : VirtualDubMod 1.5.10.3 | www.virtualdub-fr.org || (build 2550/release)
Writing library : VirtualDubMod build 2550/release
Video
ID : 0
Format : MPEG-4 Visual
Format profile : Advanced [email protected]
Format settings, BVOP : 1
Format settings, QPel : No
Format settings, GMC : No warppoints
Format settings, Matrix : Default (MPEG)
Codec ID : XVID
Codec ID/Hint : XviD
Duration : 1h 53mn
Bit rate : 1 656 Kbps
Width : 720 pixels
Height : 304 pixels
Display aspect ratio : 2.35:1
Frame rate : 23.976 fps
Color space : YUV
Chroma subsampling : 4:2:0
Bit depth : 8 bits
Scan type : Progressive
Compression mode : Lossy
Bits/(Pixel*Frame) : 0.316
Stream size : 1.32 GiB (89%)
Writing library : XviD 1.2.1 (UTC 2008-12-04)
Audio
ID : 1
Format : AC-3
Format/Info : Audio Coding 3
Mode extension : CM (complete main)
Format settings, Endianness : Big
Codec ID : 2000
Duration : 1h 53mn
Bit rate mode : Constant
Bit rate : 192 Kbps
Channel(s) : 2 channels
Channel positions : Front: L R
Sampling rate : 48.0 KHz
Bit depth : 16 bits
Compression mode : Lossy
Stream size : 156 MiB (10%)
Alignment : Split accross interleaves
Interleave, duration : 42 ms (1.00 video frame)
Interleave, preload duratio : 500 ms

Скриншот c названием фильма

Скриншоты





Создавать темы 13-Апр-2015 11:19

[Профиль]  [ЛС] 

FoxSage

Стаж: 4 года 4 месяца

Сообщений: 197

Симпатии: 19

lotto, Спасибо

Создавать темы 13-Апр-2015 21:59

[Профиль]  [ЛС] 

FRIEND

Стаж: 6 лет 9 месяцев

Сообщений: 120

Симпатии: 7

Как фильм? Стоит качать?

Создавать темы 15-Апр-2015 19:42

[Профиль]  [ЛС] 

-OdilmaX-

Стаж: 2 года 8 месяцев

Сообщений: 425

Симпатии: 854

931219Как фильм? Стоит качать?
Да стоит )) фильм нормальный

Создавать темы 16-Апр-2015 16:43

[Профиль]  [ЛС] 
Показать сообщения:    
Ответить на тему

Текущее время: 23-Ноя 01:27

Часовой пояс: UTC + 5



Вы не можете начинать темы
Вы не можете отвечать на сообщения
Вы не можете редактировать свои сообщения
Вы не можете удалять свои сообщения
Вы не можете голосовать в опросах
Вы не можете прикреплять файлы к сообщениям
Вы не можете скачивать файлы