Сборник AMV от AkrossCon [HDTVRip] [2014, приключения, драма]

Ответить на тему
 

Dead_Mopo3 ®

Стаж: 5 лет 6 месяцев

Сообщений: 270

Симпатии: 25

Сборник AMV от AkrossCon
Жанр: приключения, драма
Продолжительность: (4 эп),~ 4 мин.
Описание:В современном мире царит мир и спокойствие, положен конец кровопролитным и жестоким войнам. Все это достигнуто с помощью сверхпродвинутой технологии под названием «Мана». Она подобна магии и волшебству. Не все могли владеть силой «маны». Таких людей называли «нормы». И они были изгоями в обществе и к ним относились как к мусору. И вот первая принцесса Анджелиса новой империи Мицуруги узнала о том, что она Норма. Не терпя такого зверского отношения к себе, юная леди отправляется на отдаленный остров. Здесь она сталкивается с несколькими девушками, которые также не могут пользоваться силой маны. Но они используют боевых роботов под названием «Барамейру» для сражения с драконами. Эти существа вторгаются на остров из другого измерения. Анджелиса пополняет ряды боевой группы красавиц!
Качество: HDTVRip
Формат: MP4
Видео: MPEG-4 1280x720 29.970 fps 2 896 Kbps
Аудио: AAC 44100 Hz stereo 192 Kbps

MediaInfo

General
Complete name : C:\Users\Dead_Mopo3\Downloads\¦Cross Ange¦ ¦AMV ¦ - Animals Maroon 5.mp4
Format : MPEG-4
Format profile : Base Media / Version 2
Codec ID : mp42
File size : 83.5 MiB
Duration : 3mn 46s
Overall bit rate mode : Variable
Overall bit rate : 3 091 Kbps
Encoded date : UTC 2014-12-29 19:46:55
Tagged date : UTC 2014-12-29 19:46:55
gsst : 0
gstd : 226648
gssd : BADC294E7HH1423397344300173
gshh : r7---sn-n8v7znls.googlevideo.com
Video
ID : 1
Format : AVC
Format/Info : Advanced Video Codec
Format profile : [email protected]
Format settings, CABAC : Yes
Format settings, ReFrames : 1 frame
Codec ID : avc1
Codec ID/Info : Advanced Video Coding
Duration : 3mn 46s
Bit rate : 2 896 Kbps
Maximum bit rate : 5 740 Kbps
Width : 1 280 pixels
Height : 720 pixels
Display aspect ratio : 16:9
Frame rate mode : Constant
Frame rate : 29.970 fps
Color space : YUV
Chroma subsampling : 4:2:0
Bit depth : 8 bits
Scan type : Progressive
Bits/(Pixel*Frame) : 0.105
Stream size : 78.2 MiB (94%)
Tagged date : UTC 2014-12-29 19:46:56
Audio
ID : 2
Format : AAC
Format/Info : Advanced Audio Codec
Format profile : LC
Codec ID : 40
Duration : 3mn 46s
Bit rate mode : Variable
Bit rate : 192 Kbps
Maximum bit rate : 204 Kbps
Channel(s) : 2 channels
Channel positions : Front: L R
Sampling rate : 44.1 KHz
Compression mode : Lossy
Stream size : 5.19 MiB (6%)
Title : IsoMedia File Produced by Google, 5-11-2011
Encoded date : UTC 2014-12-29 19:46:56
Tagged date : UTC 2014-12-29 19:46:56

Список AMV

01. Cross Ange AMV
02. Cross Ange Rondo of Angel and Dragon amv ONE OK ROCK
03. AMV Cross Ange-Numb
04. Cross Ange AMV- Animals Maroon 5

Скриншоты





Последний раз редактировалось: Dead_Mopo3 (2015-04-14 17:48), всего редактировалось 2 раз(а)

Создавать темы 13-Апр-2015 21:47

[Профиль]  [ЛС] 
Показать сообщения:    
Ответить на тему

Текущее время: 15-Дек 21:10

Часовой пояс: UTC + 5



Вы не можете начинать темы
Вы не можете отвечать на сообщения
Вы не можете редактировать свои сообщения
Вы не можете удалять свои сообщения
Вы не можете голосовать в опросах
Вы не можете прикреплять файлы к сообщениям
Вы не можете скачивать файлы