Стражи Барьера / Kekkai Sensen (Мацумото Риэ) [TV] [12 из 12 + SP] [2015 г.,приключения, фэнтези] [HDTVRip 720p] [AniDub]

Страницы :  1, 2  След.

Ответить на тему
 

nesage ®

Стаж: 6 лет 5 месяцев

Сообщений: 42

Симпатии: 34

Kekkai Sensen
Стражи Барьера

-Год: 2015
Жанр: приключения, фэнтези
Страна: Япония
Количество серий: 12
Продолжительность: 25 мин
Дата выпуска: c 05.04.2015
Режиссер: Мацумото Риэ
Автор оригинала / Сценарист: Найто Ясухиро
Озвучивание:Студийная Банда AD
Перевод: Инна Астафьева
Тайминг и работа со звуком: BalFor
Студия:
Описание: Новый Иерусалим - город, где миры смешались. Демоны, монстры, чудовища и люди живут и соседствуют друг с другом. Но соседи порой устраивают тот еще геморрой (перфоратор по утрам, тусовки на всю ночь). Благо, город огражден от остального мира барьером, не выпускающим всю эту нечисть за его пределы. Однако есть те, кому неймётся и надо обязательно напакостить, и вот за этими пакостниками присматривает тайная организация "Весы" / "Либра", в ряды которой, вступает герой этой жутко запутанной истории - Лео, обладатель редкого сверхдара Глаза Божьего / Глаз Богов
Качество: HDTVRip
Формат: MP4
Тип релиза: Без хардсаба
Видео: mp4 | AVC, 8 bits, 1280x720, 1776 kbps, 23,976 fps
Аудио: RU - AAC, 48.0 KHz, 16 bits, 192 kbps, 2ch;

Media Info

General
Complete name : E:\фильмы\Анимэ\Аниме(2)\[AniDub]_Kekkai_Sensen_[720p]_[ADStudio]\[AniDub]_Kekkai_Sensen_[01]_[720p]_[ADStudio].mp4
Format : MPEG-4
Format profile : Base Media
Codec ID : isom
File size : 421 MiB
Duration : 24mn 29s
Overall bit rate mode : Variable
Overall bit rate : 2 402 Kbps
Encoded date : UTC 2015-04-12 21:53:23
Tagged date : UTC 2015-04-12 21:53:23
Writing application : Yamb 2.1.0.0 [http://yamb.unite-video.com]
Video
ID : 1
Format : AVC
Format/Info : Advanced Video Codec
Format profile : [email protected]
Format settings, CABAC : Yes
Format settings, ReFrames : 4 frames
Codec ID : avc1
Codec ID/Info : Advanced Video Coding
Duration : 24mn 29s
Bit rate : 2 235 Kbps
Maximum bit rate : 20.6 Mbps
Width : 1 280 pixels
Height : 720 pixels
Display aspect ratio : 16:9
Frame rate mode : Constant
Frame rate : 23.976 fps
Color space : YUV
Chroma subsampling : 4:2:0
Bit depth : 8 bits
Scan type : Progressive
Bits/(Pixel*Frame) : 0.101
Stream size : 392 MiB (93%)
Title : 264
Writing library : x264 core 129 r2245+729M 1a52e03
Encoding settings : cabac=1 / ref=4 / deblock=1:1:-1 / analyse=0x3:0x113 / me=umh / subme=9 / psy=1 / fade_compensate=0.00 / psy_rd=1.00:0.00 / mixed_ref=1 / me_range=24 / chroma_me=1 / trellis=2 / 8x8dct=1 / cqm=0 / deadzone=21,11 / fast_pskip=1 / chroma_qp_offset=-2 / threads=8 / lookahead_threads=1 / sliced_threads=0 / nr=0 / decimate=1 / interlaced=0 / bluray_compat=0 / constrained_intra=0 / fgo=0 / bframes=9 / b_pyramid=2 / b_adapt=2 / b_bias=0 / direct=1 / weightb=1 / open_gop=0 / weightp=2 / keyint=240 / keyint_min=24 / scenecut=40 / intra_refresh=0 / rc=crf / mbtree=0 / crf=18.5 / qcomp=0.72 / qpmin=0 / qpmax=69 / qpstep=4 / ip_ratio=1.40 / pb_ratio=1.30 / aq=1:0.85
Encoded date : UTC 2015-04-05 07:07:03
Tagged date : UTC 2015-04-12 21:53:39
Color primaries : BT.709
Transfer characteristics : BT.709
Matrix coefficients : BT.709
Color range : Limited
Audio
ID : 2
Format : AAC
Format/Info : Advanced Audio Codec
Format profile : LC
Codec ID : 40
Duration : 24mn 29s
Bit rate mode : Variable
Bit rate : 163 Kbps
Maximum bit rate : 221 Kbps
Channel(s) : 2 channels
Channel positions : Front: L R
Sampling rate : 48.0 KHz
Compression mode : Lossy
Stream size : 28.5 MiB (7%)
Encoded date : UTC 2015-04-12 21:53:38
Tagged date : UTC 2015-04-12 21:53:39
Добавлена последняя серия ! спасибо SoluSoull и SNIL !

Отличия от других раздач

https://tas-ix.net/viewtopic.php?t=105322 - другая озвучка

Screenshots:





Последний раз редактировалось: nesage (2015-10-13 11:45), всего редактировалось 10 раз(а)

Создавать темы 14-Апр-2015 14:37

[Профиль]  [ЛС] 

nesage ®

Стаж: 6 лет 5 месяцев

Сообщений: 42

Симпатии: 34

2 серия !

Создавать темы 14-Апр-2015 21:58

[Профиль]  [ЛС] 

nesage ®

Стаж: 6 лет 5 месяцев

Сообщений: 42

Симпатии: 34

3 серия !

Создавать темы 20-Апр-2015 01:26

[Профиль]  [ЛС] 

nesage ®

Стаж: 6 лет 5 месяцев

Сообщений: 42

Симпатии: 34

4 серия !

Создавать темы 27-Апр-2015 13:14

[Профиль]  [ЛС] 

krocki

Стаж: 2 года 6 месяцев

Сообщений: 57

Симпатии: 1

Ждёмс 5!

Создавать темы 09-Май-2015 13:45

[Профиль]  [ЛС] 

nesage ®

Стаж: 6 лет 5 месяцев

Сообщений: 42

Симпатии: 34

Анидаб никак не выложит 5 , остальное перевели,этот нет покачто (

Комментарий от SNIL


Случается!

Создавать темы 10-Май-2015 21:41

[Профиль]  [ЛС] 

nesage ®

Стаж: 6 лет 5 месяцев

Сообщений: 42

Симпатии: 34

5-6 серии в раздаче !

Создавать темы 15-Май-2015 21:48

[Профиль]  [ЛС] 

krocki

Стаж: 2 года 6 месяцев

Сообщений: 57

Симпатии: 1

nesage, Спасибооо!

Создавать темы 15-Май-2015 23:01

[Профиль]  [ЛС] 

krocki

Стаж: 2 года 6 месяцев

Сообщений: 57

Симпатии: 1

Как насчёт до 9!!!

Создавать темы 02-Июн-2015 14:51

[Профиль]  [ЛС] 

nesage ®

Стаж: 6 лет 5 месяцев

Сообщений: 42

Симпатии: 34

Обновлено до 10 серии !

Создавать темы 19-Июн-2015 09:30

[Профиль]  [ЛС] 

nesage ®

Стаж: 6 лет 5 месяцев

Сообщений: 42

Симпатии: 34

Обновлено !

Создавать темы 03-Июл-2015 12:41

[Профиль]  [ЛС] 

SNIL

Стаж: 5 лет 9 месяцев

Сообщений: 2624

Симпатии: 341

Судьба тайтла печалит! Поговаривают что 12я серия выйдет в декабре

Создавать темы 06-Авг-2015 08:08

[Профиль]  [ЛС] 

SNIL

Стаж: 5 лет 9 месяцев

Сообщений: 2624

Симпатии: 341

Вышла 12я серия в Анимевосте

Создавать темы 09-Окт-2015 10:04

[Профиль]  [ЛС] 

nesage ®

Стаж: 6 лет 5 месяцев

Сообщений: 42

Симпатии: 34

на анидабе тоже вышла,только у меня трафы нет в этом месяце ( если кто скачает и обновит буду благодарен,если нет обновлю в ноябре

Создавать темы 13-Окт-2015 01:00

[Профиль]  [ЛС] 

SNIL

Стаж: 5 лет 9 месяцев

Сообщений: 2624

Симпатии: 341

nesage, качаю! сегодня постараюсь обновить
P.S Большой скорости не обещаю (в дно)

Создавать темы 13-Окт-2015 08:37

[Профиль]  [ЛС] 
Показать сообщения:    
Ответить на тему

Текущее время: 22-Окт 00:35

Часовой пояс: UTC + 5



Вы не можете начинать темы
Вы не можете отвечать на сообщения
Вы не можете редактировать свои сообщения
Вы не можете удалять свои сообщения
Вы не можете голосовать в опросах
Вы не можете прикреплять файлы к сообщениям
Вы не можете скачивать файлы