OreGairu 2 /Розовая пора моей школьной жизни сплошной обман 2 / Yahari Ore no Seishun Love Comedy wa Machigatteiru. Zoku [TV 2] [13 из 13] [Без хардсаба] [RUS(int), JAP] [2015 г., комедия, романтика, школа][HDTVRip 720p] [AniDub]

Ответить на тему
 

nesage ®

Стаж: 6 лет 7 месяцев

Сообщений: 42

Симпатии: 34

Розовая пора моей школьной жизни сплошной обман 2
OreGairu 2

Год: 2015
Жанр: комедия, школа, романтика
Страна: Япония
Количество серий: 13
Продолжительность: 25 мин
Дата выпуска: c c 03.04.2015
Режиссер: Ойкава Кэй
Автор оригинала / Сценарист:Ватари Ватару
Озвучивание:Cuba77, Trina_D
Перевод: Sa4ko aka Kiyoso, Zenobian
Тайминг и работа со звуком: SuNRiZ
Студия:
Описание: Ах, юности прекрасная пора...бла-бла-бла, бла-бла-бла"
Ха! А вот и не так! Особенно, когда ни друзей, ни подруг... да еще и в котелке пятнадцать литров концентрированной придури с комплексами в перемешку. Если с нормальными людьми никак сладить не получается, значит, нужно найти себе подобных, авось чего и выйдет...
Так что в добрый путь, наши неадекватные герои!
Качество: HDTVRip
Формат: MP4
Тип релиза: Без хардсаба
Видео: mp4 | AVC, 8 bits, 1280x720, 1776 kbps, 23,976 fps
Аудио: RU - AAC, 48.0 KHz, 16 bits, 192 kbps, 2ch;

Media Info

General
Complete name : E:\фильмы\Анимэ\Аниме(2)\[AniDub]_OreGairu_TV-2_[Cuba77_Trina_D]\[AniDub]_OreGairu_TV-2_[01]_[720p_Aac_x264]_[Cuba77_Trina_D].mp4
Format : MPEG-4
Format profile : Base Media
Codec ID : isom
File size : 238 MiB
Duration : 24mn 30s
Overall bit rate mode : Variable
Overall bit rate : 1 360 Kbps
Encoded date : UTC 2015-04-03 18:34:31
Tagged date : UTC 2015-04-03 18:34:31
Writing application : Yamb 2.1.0.0 [http://yamb.unite-video.com]
Video
ID : 1
Format : AVC
Format/Info : Advanced Video Codec
Format profile : [email protected]
Format settings, CABAC : Yes
Format settings, ReFrames : 4 frames
Codec ID : avc1
Codec ID/Info : Advanced Video Coding
Duration : 24mn 30s
Bit rate : 1 164 Kbps
Maximum bit rate : 6 080 Kbps
Width : 1 280 pixels
Height : 720 pixels
Display aspect ratio : 16:9
Frame rate mode : Constant
Frame rate : 23.976 fps
Color space : YUV
Chroma subsampling : 4:2:0
Bit depth : 8 bits
Scan type : Progressive
Bits/(Pixel*Frame) : 0.053
Stream size : 204 MiB (86%)
Title : 264
Writing library : x264 core 129 r2245+729M 1a52e03
Encoding settings : cabac=1 / ref=4 / deblock=1:1:-1 / analyse=0x3:0x113 / me=umh / subme=9 / psy=1 / fade_compensate=0.00 / psy_rd=1.00:0.00 / mixed_ref=1 / me_range=24 / chroma_me=1 / trellis=2 / 8x8dct=1 / cqm=0 / deadzone=21,11 / fast_pskip=1 / chroma_qp_offset=-2 / threads=8 / lookahead_threads=1 / sliced_threads=0 / nr=0 / decimate=1 / interlaced=0 / bluray_compat=0 / constrained_intra=0 / fgo=0 / bframes=9 / b_pyramid=2 / b_adapt=2 / b_bias=0 / direct=1 / weightb=1 / open_gop=0 / weightp=2 / keyint=240 / keyint_min=24 / scenecut=40 / intra_refresh=0 / rc=crf / mbtree=0 / crf=18.5 / qcomp=0.72 / qpmin=0 / qpmax=69 / qpstep=4 / ip_ratio=1.40 / pb_ratio=1.30 / aq=1:0.85
Encoded date : UTC 2015-04-02 18:59:56
Tagged date : UTC 2015-04-03 18:34:34
Color primaries : BT.709
Transfer characteristics : BT.709
Matrix coefficients : BT.709
Color range : Limited
Audio
ID : 2
Format : AAC
Format/Info : Advanced Audio Codec
Format profile : LC
Codec ID : 40
Duration : 24mn 30s
Bit rate mode : Variable
Bit rate : 192 Kbps
Maximum bit rate : 197 Kbps
Channel(s) : 2 channels
Channel positions : Front: L R
Sampling rate : 48.0 KHz
Compression mode : Lossy
Stream size : 33.7 MiB (14%)
Language : Russian
Encoded date : UTC 2015-04-03 18:34:33
Tagged date : UTC 2015-04-03 18:34:34

Отличия от других раздач

https://tas-ix.net/viewtopic.php?t=105225 - другая озвучка

Screenshots:





Последний раз редактировалось: nesage (2015-07-03 18:45), всего редактировалось 11 раз(а)

Создавать темы 14-Апр-2015 14:53

[Профиль]  [ЛС] 

nesage ®

Стаж: 6 лет 7 месяцев

Сообщений: 42

Симпатии: 34

Обновлено !
3 серия !

Создавать темы 21-Апр-2015 18:07

[Профиль]  [ЛС] 

nesage ®

Стаж: 6 лет 7 месяцев

Сообщений: 42

Симпатии: 34

Обновлено !
4 серия !

Создавать темы 27-Апр-2015 17:53

[Профиль]  [ЛС] 

Price

Стаж: 5 лет 3 месяца

Сообщений: 35

Симпатии: 5

РАЗДАЙТЕ ПАЦАНЫ

Создавать темы 27-Апр-2015 18:11

[Профиль]  [ЛС] 

nesage ®

Стаж: 6 лет 7 месяцев

Сообщений: 42

Симпатии: 34

Обновлено !
5 серия !

Создавать темы 06-Май-2015 13:04

[Профиль]  [ЛС] 

nesage ®

Стаж: 6 лет 7 месяцев

Сообщений: 42

Симпатии: 34

Обновлено !
6 Серия !

Создавать темы 11-Май-2015 11:45

[Профиль]  [ЛС] 

nesage ®

Стаж: 6 лет 7 месяцев

Сообщений: 42

Симпатии: 34

Обновлено !
7 серия !

Создавать темы 19-Май-2015 14:40

[Профиль]  [ЛС] 

nesage ®

Стаж: 6 лет 7 месяцев

Сообщений: 42

Симпатии: 34

Обновлено !
8 серия !

Создавать темы 27-Май-2015 21:37

[Профиль]  [ЛС] 

nesage ®

Стаж: 6 лет 7 месяцев

Сообщений: 42

Симпатии: 34

Конец Сезона !

Создавать темы 03-Июл-2015 12:44

[Профиль]  [ЛС] 

Топик был перенесен из форума Аниме онгоинги в форум HD, HDTVRip
SNIL

Создавать темы 03-Июл-2015 18:46

 

Иггдрасиль

Стаж: 2 года 3 месяца

Сообщений: 11

Симпатии: 1

я скачаю не уходите

Создавать темы 10-Окт-2015 12:33

[Профиль]  [ЛС] 
Показать сообщения:    
Ответить на тему

Текущее время: 13-Дек 21:40

Часовой пояс: UTC + 5



Вы не можете начинать темы
Вы не можете отвечать на сообщения
Вы не можете редактировать свои сообщения
Вы не можете удалять свои сообщения
Вы не можете голосовать в опросах
Вы не можете прикреплять файлы к сообщениям
Вы не можете скачивать файлы