Рики / Ricky (Франсуа Озон / François Ozon) [2009, Франция, Италия, фэнтези, драма, мелодрама, DVDRip] (MVO) (Sub Rus + Original Fre)

Ответить на тему
 

kat222000 ®

Стаж: 6 лет 7 месяцев

Сообщений: 608

Симпатии: 1055

- -Рики / Ricky-Страна: Франция, Италия
Жанр: фэнтези, драма, мелодрама
Год выпуска: 2009
Продолжительность: 01:25:30
Перевод: Профессиональный (многоголосый закадровый)
Cубтитры: русские (внешние)
Оригинальная аудиодорожка: французский (отдельно)-Режиссер: Франсуа Озон / François Ozon-В ролях: Александра Лами, Серхи Лопес, Мелюзин Майанс, Артюр Пейре, Андре Вилмс, Жан-Клод Болле-Редда, Мэрилин Эвен, Патрисия Келл и др.-Описание: Когда Кэти, обыкновенная женщина, встречает Пако, обыкновенного мужчину, происходит нечто магическое и чудесное — любовь. Из этого союза рождается необыкновенный ребёнок — Рики.- -«Рики» (фр. Ricky) — французский фильм режиссёра Франсуа Озона по новелле Роуз Тремейн. Мировая премьера состоялась 6 февраля 2009 года на Берлинском кинофестивале. В России в прокате с 4 июня 2009 года.-Возраст: зрителям, достигшим 12 лет-Качество видео: DVDRip
Формат видео: AVI
Видео кодек: XviD
Аудио кодек: AC3
Видео: 720x384 (1.88:1), 25 fps, XviD build 46 ~1830 kbps avg, 0.26 bit/pixel
Аудио 1: 48 kHz, AC3 Dolby Digital, 3/2 (L,C,R,l,r) + LFE ch, ~448.00 kbps avg русский
Аудио 2: 48 kHz, AC3 Dolby Digital, 3/2 (L,C,R,l,r) + LFE ch, ~448.00 kbps avg французский (отдельно)-

MediaInfo

General
Format : AVI
Format/Info : Audio Video Interleave
File size : 1.37 GiB
Duration : 1h 25mn
Overall bit rate : 2 290 Kbps
Writing application : Lavf52.17.0
Video
ID : 0
Format : MPEG-4 Visual
Format profile : [email protected]
Format settings, BVOP : No
Format settings, QPel : No
Format settings, GMC : No warppoints
Format settings, Matrix : Default (H.263)
Codec ID : XVID
Codec ID/Hint : XviD
Duration : 1h 25mn
Bit rate : 1 831 Kbps
Width : 720 pixels
Height : 384 pixels
Display aspect ratio : 1.85:1
Frame rate : 25.000 fps
Color space : YUV
Chroma subsampling : 4:2:0
Bit depth : 8 bits
Scan type : Progressive
Compression mode : Lossy
Bits/(Pixel*Frame) : 0.265
Stream size : 1.09 GiB (80%)
Writing library : XviD 1.1.2 (UTC 2006-11-01)
Audio
ID : 1
Format : AC-3
Format/Info : Audio Coding 3
Mode extension : CM (complete main)
Format settings, Endianness : Big
Codec ID : 2000
Duration : 1h 25mn
Bit rate mode : Constant
Bit rate : 448 Kbps
Channel(s) : 6 channels
Channel positions : Front: L C R, Side: L R, LFE
Sampling rate : 48.0 KHz
Bit depth : 16 bits
Compression mode : Lossy
Stream size : 274 MiB (20%)
Alignment : Aligned on interleaves
Interleave, duration : 32 ms (0.80 video frame)
-

Скриншот c названием фильма

-

Скриншоты





- - -
-

Создавать темы 14-Апр-2015 23:03

[Профиль]  [ЛС] 

Tolik4523

Стаж: 5 лет 10 месяцев

Сообщений: 271

Симпатии: 27

Жалко родителей, особенно в конце.

Создавать темы 16-Апр-2015 14:20

[Профиль]  [ЛС] 

FRIEND

Стаж: 6 лет 9 месяцев

Сообщений: 120

Симпатии: 7

931360Жалко родителей, особенно в конце.
А мне не жалко их. Наоборот жалко малыша замученного от таких сухих отношений по отношению к нему. Думала, самый странный фильм у Франсуа Крысятник, но этот оказался еще более чокнутым, которого иногда приходится принять от Озона.
Но отдельная моя благодарнось моему любимому kat222000! aj

Создавать темы 24-Апр-2015 22:44

[Профиль]  [ЛС] 
Показать сообщения:    
Ответить на тему

Текущее время: 19-Ноя 23:00

Часовой пояс: UTC + 5



Вы не можете начинать темы
Вы не можете отвечать на сообщения
Вы не можете редактировать свои сообщения
Вы не можете удалять свои сообщения
Вы не можете голосовать в опросах
Вы не можете прикреплять файлы к сообщениям
Вы не можете скачивать файлы