Тотем волка / Wolf Totem (Жан-Жак Анно / Jean-Jacques Annaud) [2015, Китай, Франция, приключения, HDRip] (MVO : Студия Пиратского Дубляжа)

Ответить на тему
 

sb22 ®

Стаж: 2 года 7 месяцев

Сообщений: 1

Симпатии: 3

Тотем волка / Wolf Totem
Страна: Китай, Франция
Жанр: приключения
Год выпуска: 2015
Продолжительность: 01:56:24
Перевод: Профессиональный (многоголосый закадровый) Доп. инфо о переводе Студия Пиратского Дубляжа
Cубтитры: Присутствуют вшитые неотключаемые китайско-английские субтитры.
Режиссер: Жан-Жак Анно / Jean-Jacques Annaud
В ролях: Уилльям Фэн, Шон До, Ба Сэнь Чжа Бу, Анкхньям Рачаа, Yin Zhusheng, Baoyingexige
Описание: В 1967 году молодой пекинский студент Чэнь Чжэнь отправляется жить среди кочевых пастухов Внутренней Монголии.
Оказавшись зажатыми между прогрессом цивилизации с юга и мародерством волков на севере, люди и животные борются, чтобы найти свое место в мире.
Качество видео: HDRip
Формат видео: AVI
Видео: Xvid 720x304 25fps 1399kbps
Аудио: AC3 48000Hz stereo 384kbps

MediaInfo

General
Complete name : D:\Brazil-2014\Wolf Totem.avi
Format : AVI
Format/Info : Audio Video Interleave
File size : 1.46 GiB
Duration : 1h 56mn
Overall bit rate : 1 794 Kbps
Writing application : VirtualDubMod 1.5.10.3 | www.virtualdub-fr.org || (build 2550/release)
Writing library : VirtualDubMod build 2550/release
Video
ID : 0
Format : MPEG-4 Visual
Format profile : Advanced [email protected]
Format settings, BVOP : 2
Format settings, QPel : No
Format settings, GMC : No warppoints
Format settings, Matrix : Default (MPEG)
Muxing mode : Packed bitstream
Codec ID : XVID
Codec ID/Hint : XviD
Duration : 1h 56mn
Bit rate : 1 400 Kbps
Width : 720 pixels
Height : 304 pixels
Display aspect ratio : 2.35:1
Frame rate : 25.000 fps
Color space : YUV
Chroma subsampling : 4:2:0
Bit depth : 8 bits
Scan type : Progressive
Compression mode : Lossy
Bits/(Pixel*Frame) : 0.256
Stream size : 1.14 GiB (78%)
Writing library : XviD 73
Audio
ID : 1
Format : AC-3
Format/Info : Audio Coding 3
Mode extension : CM (complete main)
Codec ID : 2000
Duration : 1h 56mn
Bit rate mode : Constant
Bit rate : 384 Kbps
Channel(s) : 2 channels
Channel positions : Front: L R
Sampling rate : 48.0 KHz
Bit depth : 16 bits
Compression mode : Lossy
Delay relative to video : 140ms
Stream size : 320 MiB (21%)
Alignment : Split accross interleaves
Interleave, duration : 40 ms (1.00 video frame)
Interleave, preload duration : 500 ms

Скриншот c названием фильма

Скриншоты





Создавать темы 14-Апр-2015 23:30

[Профиль]  [ЛС] 

-OdilmaX-

Стаж: 2 года 8 месяцев

Сообщений: 425

Симпатии: 854

Создавать темы 15-Апр-2015 20:40

[Профиль]  [ЛС] 
Показать сообщения:    
Ответить на тему

Текущее время: 25-Ноя 04:59

Часовой пояс: UTC + 5



Вы не можете начинать темы
Вы не можете отвечать на сообщения
Вы не можете редактировать свои сообщения
Вы не можете удалять свои сообщения
Вы не можете голосовать в опросах
Вы не можете прикреплять файлы к сообщениям
Вы не можете скачивать файлы