Собачья Жизнь 3 / Dog Days'' (Нисимура Дзюндзи) [TV] [Без хардсаба] [01-12 из 12] [RUS] [2015г., приключения, комедия, фэнтези, этти HDTV-Rip] [720p]

Ответить на тему
 

SoluSoull ®

Стаж: 2 года 7 месяцев

Сообщений: 379

Симпатии: 452

Dog Days''
Собачья Жизнь 3-Производство: Япония
Год выпуска: 2015
Жанр: приключения, комедия, фэнтези, этти
Тип: ТВ (12 эп.), 25 мин.-Перевод:
Озвучка от OSLIKt & Гамлетка Цезаревна (anidub)-Режиссёр: Нисимура Дзюндзи
Автор оригинала: Цудзуки Маки
Студия: Seven Arcs-Описание: На Земле настали осенние каникулы, и веселая англо-японская компания школьников во главе с Синком Идзуми снова спешит в чудесный мир Фрониард - чтобы выполнить обещанное, встретиться с друзьями и выяснить, наконец, кто сильнее - отчаянный Синк или его кузина Нанами, такая же веселая и безбашенная? На этот раз пути главных героев в полюбившиеся земли Фрониарда разошлись - если Ребекка добралась без приключений, то Синк и Нанами судьба забросила в таинственный Драконий Лес, где, несмотря на усилия юной жрицы Шарлы, просыпается новая угроза...
Но никакая беда не страшна, когда на помощь уже спешат старые друзья, за последний год собравшиеся в нерушимый Союз трех стран! Военные игры и совместные маневры давно сплотили несокрушимых рыцарей Галетта, стойких воинов Бискотти и небесную армию Пастильи, только теперь им предстоит не благородный турнир в честь вернувшихся героев, а настоящая война за будущее континента. Что ж, демоны приходят и уходят, а герои остаются - при этом за жаркими битвами во Фрониарде следуют не менее жаркие деньки отдыха и развлечений!-Качество: HDTVrip \ Формат: MP4
Тип видео: без хардсаба
Видео: AVC, 1280х720(16/9), 3733 Kbps, 23.976fps, 8 bits
Аудио: AAC, 2 ch, 192кбит/с, 48000Hz-

Скриншоты

MI

General
Complete name : E:\HDRips\[Others]\Dog Days 3\[AniDub]_Dog_Days_TV-3_[01]_[720p_x264_Aac]_[OSLIKt_HC].mp4
Format : MPEG-4
Format profile : Base Media
Codec ID : isom
File size : 674 MiB
Duration : 23mn 59s
Overall bit rate mode : Variable
Overall bit rate : 3 929 Kbps
Encoded date : UTC 2015-01-14 16:23:21
Tagged date : UTC 2015-01-14 16:23:21
Writing application : Yamb 2.1.0.0 [http://yamb.unite-video.com]
Video
ID : 1
Format : AVC
Format/Info : Advanced Video Codec
Format profile : [email protected]
Format settings, CABAC : Yes
Format settings, ReFrames : 4 frames
Codec ID : avc1
Codec ID/Info : Advanced Video Coding
Duration : 23mn 59s
Bit rate : 3 733 Kbps
Maximum bit rate : 24.0 Mbps
Width : 1 280 pixels
Height : 720 pixels
Display aspect ratio : 16:9
Frame rate mode : Constant
Frame rate : 23.976 fps
Color space : YUV
Chroma subsampling : 4:2:0
Bit depth : 8 bits
Scan type : Progressive
Bits/(Pixel*Frame) : 0.169
Stream size : 641 MiB (95%)
Title : 264
Writing library : x264 core 129 r2245+729M 1a52e03
Encoding settings : cabac=1 / ref=4 / deblock=1:1:-1 / analyse=0x3:0x113 / me=umh / subme=9 / psy=1 / fade_compensate=0.00 / psy_rd=1.00:0.00 / mixed_ref=1 / me_range=24 / chroma_me=1 / trellis=2 / 8x8dct=1 / cqm=0 / deadzone=21,11 / fast_pskip=1 / chroma_qp_offset=-2 / threads=8 / lookahead_threads=1 / sliced_threads=0 / nr=0 / decimate=1 / interlaced=0 / bluray_compat=0 / constrained_intra=0 / fgo=0 / bframes=9 / b_pyramid=2 / b_adapt=2 / b_bias=0 / direct=1 / weightb=1 / open_gop=0 / weightp=2 / keyint=240 / keyint_min=24 / scenecut=40 / intra_refresh=0 / rc=crf / mbtree=0 / crf=18.5 / qcomp=0.72 / qpmin=0 / qpmax=69 / qpstep=4 / ip_ratio=1.40 / pb_ratio=1.30 / aq=1:0.85
Encoded date : UTC 2015-01-11 12:53:10
Tagged date : UTC 2015-01-14 16:23:28
Color primaries : BT.709
Transfer characteristics : BT.709
Matrix coefficients : BT.709
Color range : Limited
Audio
ID : 2
Format : AAC
Format/Info : Advanced Audio Codec
Format profile : LC
Codec ID : 40
Duration : 23mn 59s
Bit rate mode : Variable
Bit rate : 192 Kbps
Maximum bit rate : 197 Kbps
Channel(s) : 2 channels
Channel positions : Front: L R
Sampling rate : 48.0 KHz
Compression mode : Lossy
Stream size : 33.0 MiB (5%)
Language : Russian
Encoded date : UTC 2015-01-14 16:23:27
Tagged date : UTC 2015-01-14 16:23:28
Серв снова заработал и только для туронавцев до 100мегабит\12мегабайт: http://10.32.242.130/


Последний раз редактировалось: SoluSoull (2015-04-15 00:21), всего редактировалось 1 раз

Создавать темы 15-Апр-2015 00:05

[Профиль]  [ЛС] 

SoluSoull ®

Стаж: 2 года 7 месяцев

Сообщений: 379

Симпатии: 452

Юкиииии, тока из за неё и смотрю эта пафосное аниме, ну где ещё увидишь, милашку ниндзя лисицу....

Создавать темы 15-Апр-2015 00:15

[Профиль]  [ЛС] 
Показать сообщения:    
Ответить на тему

Текущее время: 22-Окт 22:34

Часовой пояс: UTC + 5



Вы не можете начинать темы
Вы не можете отвечать на сообщения
Вы не можете редактировать свои сообщения
Вы не можете удалять свои сообщения
Вы не можете голосовать в опросах
Вы не можете прикреплять файлы к сообщениям
Вы не можете скачивать файлы