Ходячие Мертвецы / The Walking Dead / Сезон: 2 / Серии: 1-13 из 13 (Фрэнк Дарабонт) [2011, драма,ужасы,зомби, HDTVRip] (MVO : FOX) (MVO : LOST) (DVO : K&K) (rus sub + Original) Full HD

Ответить на тему
 

siyovush101 ®

Стаж: 3 года 9 месяцев

Сообщений: 205

Симпатии: 71

Ходячие Мертвецы 2 Cезон HD Год выпуска: 2011
Страна: США
Жанр: драма,ужасы,зомби
Продолжительность: 00:44:00 (1серия)-Перевод 1: Профессиональный многоголосый закадровый FOX
Перевод 2: Профессиональный многоголосый закадровый LOST
Перевод 3: Профессиональный двухголосый закадровый K&K
Русские субтитры: есть
Режиссёр: Фрэнк Дарабонт-В ролях: Эндрю Линкольн, Джон Бернтал, Сара Уайн-Келлис, Норман Ридус, Скот Уилсон, Джеффри ДеМунн, Чендлер Риггз, Стивен Юн, Лори Холден-Описание: Вирус Превратил Жителей Земли в зомби. Небольшая группа выживших изо дня в день борется за существование в новом, враждебном мире. Под предводительством бывшего полицейского Рика они ищут безопасное для жизни место. Но не стоит заблуждаться — зомби отнюдь не самое страшное, что ждет наших героев... От Себя Добавлю..Этот Шедевр Не Так Уж и Просто Описать! Нужно Просто Увидеть! Особенно в "ХЭДЭ" )))
(Второе Описание: Помощник шерифа Рик Граймс получает тяжёлое пулевое ранение во время перестрелки с преступниками, вследствие чего впадает в кому. Очнувшись в больнице, он замечает, что весь медицинский персонал отсутствует, зато в самом здании царит разруха. Постепенно он осознает, что произошла трагедия, как-то связанная с ожившими трупами. Он пытается во что бы то ни стало найти свою жену и сына, по-видимому, сумевших уцелеть, и помочь им выжить в новом опасном мире. По ходу сюжета он встречается с другими выжившими и благодаря своим лидерским способностям возглавляет борьбу за выживание.)-Доп. информацияТеперь На Нашем Сайте Все Сезоны Сериала в HD Качестве
Авторы:
1Сезон-siyovush101 [13.07Gb]
2Сезон-siyovush101 [39.95Gb]
3Сезон-korsar [27.18Gb]
4Сезон-siyovush101 [26.43Gb]
5Сезон-suz191 [28.2Gb]
Очень Долго И Медленно По Частям И Сериям Я Собирал Коллекцию!Поэтому Спасибо "emilsky" , "korsar" , "suz191" За 3 и 5 сезоны и Эмилю за Модераторство и Многое Другое!-Качество: HDTVRip
Формат: MKV
Видео кодек: MPEG2
Аудио кодек: AC3
Видео: 1920x1080 / 9 418 Kbps / 24000 fps
Аудио 1: AC3 / 384 Kbps / 6ch / FOX
Аудио 2: AC3 / 384 Kbps / 6ch / LOST
Аудио 3: AC3 / 384 Kbps / 6ch / K&K
Субтитры: Русские,Английские

MediaInfo

[Сведения о файле]
--------------------
D:\Фильмы\HD SERIAL ([email protected])\Ходячие Мертвецы 2 Сезон HD (13 Серий) ([email protected] & tas-ix.net)\Ходячие Мертвецы (1) [[email protected] & tas-ix.net][FOX-LOST-K&K].mkv
Complete name : D:\Фильмы\HD SERIAL ([email protected])\Ходячие Мертвецы 2 Сезон HD (13 Серий) ([email protected] & tas-ix.net)\Ходячие Мертвецы (1) [[email protected] & tas-ix.net][FOX-LOST-K&K].mkv
Format : Matroska
Format version : Version 2
File size : 4.98 GiB
Duration : 1h 2mn
Overall bit rate : 11.4 Mbps
Movie name : The Walkiяg Dead [Season 2] (2011) - Release for HDCLUB
Encoded date : UTC 2012-01-02 16:29:43
Writing application : mkvmerge v5.2.0 ('I can't explain') built on Dec 18 2011 18:12:03
Writing library : libebml v1.2.3 + libmatroska v1.3.0
Attachment : Yes / Yes / Yes
Video #1
ID : 1
Format : AVC
Format/Info : Advanced Video Codec
Format profile : [email protected]
Format settings, CABAC : Yes
Format settings, ReFrames : 3 frames
Codec ID : V_MPEG4/ISO/AVC
Duration : 1h 2mn
Bit rate : 9 418 Kbps
Width : 1 920 pixels
Height : 1 080 pixels
Display aspect ratio : 16:9
Frame rate : 23.976 fps
Color space : YUV
Chroma subsampling : 4:2:0
Bit depth : 8 bits
Scan type : Progressive
Bits/(Pixel*Frame) : 0.189
Stream size : 4.13 GiB (83%)
Title : The Walkiпg Dead S02E01: What Lies Ahead / Что ждет впереди - Release for HDCLUB
Writing library : x264 core 119 r2106 07efeb4
Language : English
Default : Yes
Forced : No
Audio #3
ID : 3
Format : AC-3
Format/Info : Audio Coding 3
Mode extension : CM (complete main)
Format settings, Endianness : Big
Codec ID : A_AC3
Duration : 1h 2mn
Bit rate mode : Constant
Bit rate : 384 Kbps
Channel(s) : 6 channels
Channel positions : Front: L C R, Side: L R, LFE
Sampling rate : 48.0 KHz
Bit depth : 16 bits
Compression mode : Lossy
Stream size : 172 MiB (3%)
Title : Fox Crime
Language : Russian
Default : Yes
Forced : No
Audio #2
ID : 2
Format : AC-3
Format/Info : Audio Coding 3
Mode extension : CM (complete main)
Format settings, Endianness : Big
Codec ID : A_AC3
Duration : 1h 2mn
Bit rate mode : Constant
Bit rate : 384 Kbps
Channel(s) : 6 channels
Channel positions : Front: L C R, Side: L R, LFE
Sampling rate : 48.0 KHz
Bit depth : 16 bits
Compression mode : Lossy
Stream size : 172 MiB (3%)
Title : LostFilm.TV
Language : Russian
Default : No
Forced : No
Audio #4
ID : 4
Format : AC-3
Format/Info : Audio Coding 3
Mode extension : CM (complete main)
Format settings, Endianness : Big
Codec ID : A_AC3
Duration : 1h 2mn
Bit rate mode : Constant
Bit rate : 384 Kbps
Channel(s) : 6 channels
Channel positions : Front: L C R, Side: L R, LFE
Sampling rate : 48.0 KHz
Bit depth : 16 bits
Compression mode : Lossy
Stream size : 172 MiB (3%)
Title : Кубик в Кубе
Language : Russian
Default : No
Forced : No
Audio #5
ID : 5
Format : AC-3
Format/Info : Audio Coding 3
Mode extension : CM (complete main)
Format settings, Endianness : Big
Codec ID : A_AC3
Duration : 1h 2mn
Bit rate mode : Constant
Bit rate : 192 Kbps
Channel(s) : 2 channels
Channel positions : Front: L R
Sampling rate : 48.0 KHz
Bit depth : 16 bits
Compression mode : Lossy
Stream size : 86.2 MiB (2%)
Title : UATEAM.TV
Language : Ukrainian
Default : No
Forced : No
Audio #6
ID : 6
Format : AC-3
Format/Info : Audio Coding 3
Mode extension : CM (complete main)
Format settings, Endianness : Big
Codec ID : A_AC3
Duration : 1h 2mn
Bit rate mode : Constant
Bit rate : 384 Kbps
Channel(s) : 6 channels
Channel positions : Front: L C R, Side: L R, LFE
Sampling rate : 48.0 KHz
Bit depth : 16 bits
Compression mode : Lossy
Stream size : 172 MiB (3%)
Language : English
Default : No
Forced : No
Text #7
ID : 7
Format : ASS
Codec ID : S_TEXT/ASS
Codec ID/Info : Advanced Sub Station Alpha
Compression mode : Lossless
Title : Forced
Language : Russian
Default : Yes
Forced : No
Text #8
ID : 8
Format : ASS
Codec ID : S_TEXT/ASS
Codec ID/Info : Advanced Sub Station Alpha
Compression mode : Lossless
Title : Full [Inga Boo]
Language : Russian
Default : No
Forced : No
Text #9
ID : 9
Format : ASS
Codec ID : S_TEXT/ASS
Codec ID/Info : Advanced Sub Station Alpha
Compression mode : Lossless
Language : English
Default : No
Forced : No

Скриншоты






Создавать темы 16-Апр-2015 16:11

[Профиль]  [ЛС] 

siyovush101 ®

Стаж: 3 года 9 месяцев

Сообщений: 205

Симпатии: 71

Субтитры [RU] [ENG] оригнальная дорожка так же присутствует!
Раздача Ведётся Путём 1 Мегабита))) я сам с мира качал при более Худшем Раскладе! Поэтому Терпение и Только Терпение!
Релиз Для Ценителей HD Ходячих)))) Жмите "Мне Нравится" если вам Нравится)))
Пока я в отпуске Раздача в основном 24/7 но отпуск мой скоро кончается! так что в будние дни с 18:00 до 8:00 Раздача!)


Последний раз редактировалось: siyovush101 (2015-04-30 22:50), всего редактировалось 2 раз(а)

Создавать темы 16-Апр-2015 17:33

[Профиль]  [ЛС] 

suz191

Стаж: 5 лет 3 месяца

Сообщений: 20

Симпатии: 8

Классно! Аж 3-и перевода... Самое главное есть оригинал. Спасибо!

Создавать темы 16-Апр-2015 23:06

[Профиль]  [ЛС] 

siyovush101 ®

Стаж: 3 года 9 месяцев

Сообщений: 205

Симпатии: 71

931486Классно! Аж 3-и перевода... Самое главное есть оригинал. Спасибо!
В Порыве Оформления Забыл добавить что там ещё украинская дорожка и оригинал Инглиш))

Создавать темы 17-Апр-2015 01:34

[Профиль]  [ЛС] 

M_A_K

Стаж: 5 лет 10 месяцев

Сообщений: 100

Симпатии: 15

Теперь На Нашем Сайте Все Сезоны Сериала в HD Качестве
Есть то есть, а скачать нереально так как раздающих вообще нет (((

Создавать темы 26-Окт-2015 18:03

[Профиль]  [ЛС] 

siyovush101 ®

Стаж: 3 года 9 месяцев

Сообщений: 205

Симпатии: 71

956374
Теперь На Нашем Сайте Все Сезоны Сериала в HD Качестве
Есть то есть, а скачать нереально так как раздающих вообще нет (((
Свои я раздаю. 3 сезон я раздал на 278 гигов в котором реал никого небыло!

Создавать темы 30-Окт-2015 00:00

[Профиль]  [ЛС] 
Показать сообщения:    
Ответить на тему

Текущее время: 23-Ноя 06:39

Часовой пояс: UTC + 5



Вы не можете начинать темы
Вы не можете отвечать на сообщения
Вы не можете редактировать свои сообщения
Вы не можете удалять свои сообщения
Вы не можете голосовать в опросах
Вы не можете прикреплять файлы к сообщениям
Вы не можете скачивать файлы