Потерянный рай / Escobar: Paradise Lost (Андреа Ди Стефано) [2014, Франция, Испания, Бельгия, Панама, криминал, триллер, драма, HDRip] MVO

Ответить на тему
 

lotto ®

Стаж: 7 лет 7 месяцев

Сообщений: 221

Симпатии: 409

Потерянный рай / Escobar: Paradise Lost
«Добро пожаловать в семью»
-- Страна: Франция, Испания, Бельгия, Панама
Жанр: криминал, триллер, драма
Год выпуска: 2014
Продолжительность: 01:59:31
Перевод: Профессиональный (многоголосый закадровый)
Cубтитры: нет--Режиссер: Андреа Ди Стефано
В ролях: Бенисио Дель Торо, Джош Хатчерсон, Клаудия Траисак, Брэйди Корбет, Карлос Бардем, Ана Жирардо, Мике Морено, Лаура Лондоньо, Лорен Зимски, Россана Урибе--Описание: Молодой серфер Ник приезжает к своему брату в Колумбию, где по уши влюбляется в местную девушку по имени Мария и купается в счастье ровно до тех пор, пока Мария не знакомит его со своим дядей — знаменитым наркобароном Пабло Эскобаром.-- --Качество видео: HDRip
Формат видео: AVI
Видео: XviD, 720x304, 1545 kbps, 24 fps
Аудио: AC3, 48 kHz, 2 ch, 192.00 kbps (русский, многоголосый)

MediaInfo

General
Complete name : \Escobar Paradise Lost.2014.HDRip.avi
Format : AVI
Format/Info : Audio Video Interleave
File size : 1.46 GiB
Duration : 1h 59mn
Overall bit rate : 1 746 Kbps
Video
ID : 0
Format : MPEG-4 Visual
Format profile : Advanced [email protected]
Format settings, BVOP : 2
Format settings, QPel : No
Format settings, GMC : No warppoints
Format settings, Matrix : Custom
Codec ID : XVID
Codec ID/Hint : XviD
Duration : 1h 59mn
Bit rate : 1 545 Kbps
Width : 720 pixels
Height : 304 pixels
Display aspect ratio : 2.35:1
Frame rate : 24.000 fps
Color space : YUV
Chroma subsampling : 4:2:0
Bit depth : 8 bits
Scan type : Progressive
Compression mode : Lossy
Bits/(Pixel*Frame) : 0.294
Stream size : 1.29 GiB (88%)
Writing library : XviD 64
Audio
ID : 1
Format : AC-3
Format/Info : Audio Coding 3
Mode extension : CM (complete main)
Format settings, Endianness : Big
Codec ID : 2000
Duration : 1h 59mn
Source duration : 1h 59mn
Bit rate mode : Constant
Bit rate : 192 Kbps
Channel(s) : 2 channels
Channel positions : Front: L R
Sampling rate : 48.0 KHz
Bit depth : 16 bits
Compression mode : Lossy
Stream size : 164 MiB (11%)
Alignment : Aligned on interleaves
Interleave, duration : 42 ms (1.00 video frame)

Скриншот c названием фильма

Скриншоты





Создавать темы 16-Апр-2015 16:43

[Профиль]  [ЛС] 
Показать сообщения:    
Ответить на тему

Текущее время: 18-Авг 04:33

Часовой пояс: UTC + 5



Вы не можете начинать темы
Вы не можете отвечать на сообщения
Вы не можете редактировать свои сообщения
Вы не можете удалять свои сообщения
Вы не можете голосовать в опросах
Вы не можете прикреплять файлы к сообщениям
Вы не можете скачивать файлы