Небесные стрелки / Gunslinger Stratos: The Animation(Эдзаки Синпэй) [12 из 12][Без хардсаба] [RUS(int)] [2015 г., приключения, HDTVRip] [720p]

Ответить на тему
 

farik9193 ®

Стаж: 4 года 11 месяцев

Сообщений: 501

Симпатии: 47

- Год: 2015
Жанр: приключения
Страна: Япония
Количество серий: 12
Продолжительность: 25 мин
Дата выпуска: c 04.04.2015
Режиссер: Эдзаки Синпэй
Автор оригинала / Сценарист: Уробути Гэн
Озвучивание: Kiara_Laine, Гамлетка Цезаревна, 9й Неизвестный, BalFor, Cuba77
Перевод: Bobby_Deimos
Тайминг и работа со звуком: Al'pair
Студия: -Описание: В 2115 году Японии, которую мы знаем, больше не существует. Её место заняли две параллельные вселенные, разнящиеся друг с другом. Если в одной из них царит анархия, и наёмники всех сортов вольны делать всё что пожелают, то во второй установился тоталитарный режим, бдительно контролирующий жизнь каждого человека и никому не дающий свободы. Два этих общества так и существовали бы, не начни миры вдруг сливаться, что создало множество проблем для обоих правительств, которые решили найти радикальный выход из сложившейся ситуации. Чтобы обеспечить выживание своего политического режима и устранить угрожающий ему жизненный уклад параллельной вселенной. Набрав группу стрелков родом из обоих миров, они направили своих бойцов в прошлое на сто лет – в единую Японию 2015 года. Там, ещё до возникновения параллельных вселенных, бойцы должны сразиться друг другом, чтобы определить победителя, а также помешать возникновению мира врагов.-Качество: HDTVRip
Формат: MP4
Тип релиза: Без хардсаба-Видео: mp4 | AVC, 8 bits, 1280x720, 1776 kbps, 23,976 fps
Аудио: RU - AAC, 48.0 KHz, 16 bits, 192 kbps, 2ch;-

Подробные тех. данные

General
Complete name : N:\Video\[AniDub]_Gunslinger_Stratos_The_Animation_[720p]_[MVO]\[AniDub]_Gunslinger_Stratos_The_Animation_[01]_[720p_Aac_x264]_[MVO].mp4
Format : MPEG-4
Format profile : Base Media
Codec ID : isom
File size : 346 MiB
Duration : 23mn 59s
Overall bit rate mode : Variable
Overall bit rate : 2 018 Kbps
Encoded date : UTC 2015-04-06 13:40:23
Tagged date : UTC 2015-04-06 13:40:23
Writing application : Yamb 2.1.0.0 [http://yamb.unite-video.com]
Video
ID : 1
Format : AVC
Format/Info : Advanced Video Codec
Format profile : [email protected]
Format settings, CABAC : Yes
Format settings, ReFrames : 4 frames
Codec ID : avc1
Codec ID/Info : Advanced Video Coding
Duration : 23mn 59s
Bit rate : 1 822 Kbps
Maximum bit rate : 13.5 Mbps
Width : 1 280 pixels
Height : 720 pixels
Display aspect ratio : 16:9
Frame rate mode : Constant
Frame rate : 23.976 fps
Color space : YUV
Chroma subsampling : 4:2:0
Bit depth : 8 bits
Scan type : Progressive
Bits/(Pixel*Frame) : 0.082
Stream size : 313 MiB (90%)
Title : 264
Writing library : x264 core 129 r2245+729M 1a52e03
Encoding settings : cabac=1 / ref=4 / deblock=1:1:-1 / analyse=0x3:0x113 / me=umh / subme=9 / psy=1 / fade_compensate=0.00 / psy_rd=1.00:0.00 / mixed_ref=1 / me_range=24 / chroma_me=1 / trellis=2 / 8x8dct=1 / cqm=0 / deadzone=21,11 / fast_pskip=1 / chroma_qp_offset=-2 / threads=8 / lookahead_threads=1 / sliced_threads=0 / nr=0 / decimate=1 / interlaced=0 / bluray_compat=0 / constrained_intra=0 / fgo=0 / bframes=9 / b_pyramid=2 / b_adapt=2 / b_bias=0 / direct=1 / weightb=1 / open_gop=0 / weightp=2 / keyint=240 / keyint_min=24 / scenecut=40 / intra_refresh=0 / rc=crf / mbtree=0 / crf=18.5 / qcomp=0.72 / qpmin=0 / qpmax=69 / qpstep=4 / ip_ratio=1.40 / pb_ratio=1.30 / aq=1:0.85
Encoded date : UTC 2015-04-04 18:03:49
Tagged date : UTC 2015-04-06 13:41:18
Color primaries : BT.709
Transfer characteristics : BT.709
Matrix coefficients : BT.709
Audio
ID : 2
Format : AAC
Format/Info : Advanced Audio Codec
Format profile : LC
Codec ID : 40
Duration : 23mn 59s
Bit rate mode : Variable
Bit rate : 192 Kbps
Maximum bit rate : 196 Kbps
Channel count : 2 channels
Channel positions : Front: L R
Sampling rate : 48.0 KHz
Compression mode : Lossy
Stream size : 33.0 MiB (10%)
Language : Russian
Encoded date : UTC 2015-04-06 13:41:17
Tagged date : UTC 2015-04-06 13:41:18

Cкриншоты





Последний раз редактировалось: farik9193 (2015-07-21 19:03), всего редактировалось 5 раз(а)

Создавать темы 16-Апр-2015 17:23

[Профиль]  [ЛС] 

farik9193 ®

Стаж: 4 года 11 месяцев

Сообщений: 501

Симпатии: 47

3.

Создавать темы 27-Апр-2015 19:37

[Профиль]  [ЛС] 

farik9193 ®

Стаж: 4 года 11 месяцев

Сообщений: 501

Симпатии: 47

4.

Создавать темы 16-Май-2015 11:00

[Профиль]  [ЛС] 

farik9193 ®

Стаж: 4 года 11 месяцев

Сообщений: 501

Симпатии: 47

5.

Создавать темы 16-Май-2015 11:00

[Профиль]  [ЛС] 

farik9193 ®

Стаж: 4 года 11 месяцев

Сообщений: 501

Симпатии: 47

6.

Создавать темы 17-Июн-2015 22:02

[Профиль]  [ЛС] 

farik9193 ®

Стаж: 4 года 11 месяцев

Сообщений: 501

Симпатии: 47

7.

Создавать темы 17-Июн-2015 22:02

[Профиль]  [ЛС] 

farik9193 ®

Стаж: 4 года 11 месяцев

Сообщений: 501

Симпатии: 47

Фуф все же четыре релиза на май узкий канал оказывает нагрузку . ))) (Как то по гейкси написал что ли)
Впредь буду рассудительнее когда буду брать на себя релизы .

Комментарий от SNIL


:) Партия вас не забудет!

Создавать темы 17-Июн-2015 22:04

[Профиль]  [ЛС] 

farik9193 ®

Стаж: 4 года 11 месяцев

Сообщений: 501

Симпатии: 47

SNIL, Я еще здесь пока . И все остальные релизы тоже не намерен оставлять .
просто как то за слоупочил и пытался наверстать все сразу .

Создавать темы 17-Июн-2015 23:31

[Профиль]  [ЛС] 

Топик был перенесен из форума Аниме онгоинги в форум HD, HDTVRip
SNIL

Создавать темы 21-Июл-2015 19:04

 

SNIL

Стаж: 5 лет 9 месяцев

Сообщений: 2624

Симпатии: 341

12. Релиз заверщён
Друже FireHowler подсабил!

Создавать темы 21-Июл-2015 19:06

[Профиль]  [ЛС] 
Показать сообщения:    
Ответить на тему

Текущее время: 24-Окт 10:52

Часовой пояс: UTC + 5



Вы не можете начинать темы
Вы не можете отвечать на сообщения
Вы не можете редактировать свои сообщения
Вы не можете удалять свои сообщения
Вы не можете голосовать в опросах
Вы не можете прикреплять файлы к сообщениям
Вы не можете скачивать файлы