Паланкин Долли / Dolly Ki Doli (Абхишек Догра / Abhishek Dogra) [2015, Индия, Комедия, мелодрама, WebRip] (DVO : DeadSno & den904)

Ответить на тему
 

Davron1402 ®

Стаж: 3 года 9 месяцев

Сообщений: 136

Симпатии: 122

Паланкин Долли / Dolly Ki Doli- Страна: Индия
Жанр: Комедия, мелодрама
Год выпуска: 2015
Продолжительность: 01:37:01
Перевод: Любительский (двухголосый закадровый) Доп. инфо о переводе DeadSno & den904
Cубтитры: нет
Режиссер: Абхишек Догра / Abhishek Dogra
В ролях: Малайка Арора, Мохаммед Зишан Айюб, Сонам Капур, Саиф Али Кхан, Раджкумар Рао, Пулкит Самрат, Арчана Пуран Сингх
Описание: Действие фильма разворачивается со свадьбы Долли, девушки, которая знакома со своим женихом всего 2 месяца, но уже готовая связать себя священными узами. Свадьба отыгрывается на славу, и молодой муж утром ищет свою новоиспечённую жену. А её и след простыл. Вместе со своими лже-родственниками, она грабит его семью до последней нитки, и сматывается в другой город искать себе новую жертву. Выдумывая себе разные имена, Долли охмуряет всё больше и больше женихов. Но всему приходит конец. На поиски горе-жены бросаются все брошенные мужья, желая наказать мошенницу. К тому времени, инспектор полиции Робин Сингх, который имеет с Долли свои счёты, решает взяться за расследование этого дела и поймать плутовку...-Качество видео: WebRip
Формат видео:mp4 (MPEG-4)
Видео: AVC, 852 x 480 (16:9), 24.000 fps , 793 Kbps
Аудио: AAC, 44.1 KHz, 2 channels, 150 Kbps- 

MediaInfo

Расположение: D:\KINO\Indiskie Kino\Palankin.Dolli.2015.mp4
Имя файла: Palankin.Dolli.2015.mp4
Формат файла: .mp4 (MPEG-4)
Размер файла: 657.48 MB
Длительность: 1h 37mn
Навигация по главам: Нет
Bitrate (все потоки): 947 Kbps
Тип битрейта (все потоки): Variable
Файл создан...: UTC 2015-04-16 13:42:50
...при помощи: Lavf51.12.1
Исполнитель: TmG
Название: TmG
Тип потока: Видео
Длительность: 01:37:01
Кодек: AVC
Кодек/Профиль: [email protected]
Кодек/ID: avc1
Кодек/CABAC: No
Кодек/ReFrames: 1 frame
Размеры изображения: 852 x 480 (16:9)
Частота кадров: 24.000 fps
Размер потока: 550 MiB (84%)
Битрейт: 793 Kbps
Цветовое пространство: YUV
Тип развёртки: Progressive
Глубина: 8 bits
Тип потока: Звук #1
Длительность: 01:37:01.057
Кодек: AAC
Кодек/Профиль: LC
Кодек/ID: 40
Частота дискретизации: 44.1 KHz
Каналов: 2 channels
Битрейт: 150 Kbps
Битрейт/тип: Variable
Размер потока: 104 MiB (16%)
Метод сжатия: Lossy

Скриншоты




Создавать темы 16-Апр-2015 21:15

[Профиль]  [ЛС] 
Показать сообщения:    
Ответить на тему

Текущее время: 24-Окт 05:33

Часовой пояс: UTC + 5



Вы не можете начинать темы
Вы не можете отвечать на сообщения
Вы не можете редактировать свои сообщения
Вы не можете удалять свои сообщения
Вы не можете голосовать в опросах
Вы не можете прикреплять файлы к сообщениям
Вы не можете скачивать файлы