Экстрасенсы ведут расследование (6 сезон - 1-11 выпуск). [2015 г., Реалити-шоу, SATRip]

Страницы :  1, 2  След.

Ответить на тему
 

kat222000 ®

Стаж: 6 лет 6 месяцев

Сообщений: 608

Симпатии: 1055

-Экстрасенсы ведут расследование (6 сезон - 1-11 выпуск)«Самые Лучшие Российские Экстрасенсы»-Жанр: Реалити-шоу
Страна: Россия
Кинокомпания: ТНТ
Год выпуска: 2015
Продолжительность: ~ 01:07:00-Описание: Документальный триллер-детектив с участием самых загадочных экстрасенсов России! Это не шоу, а демонстрация реальной мощи ясновидения. Участники и победители нескольких сезонов «Битвы экстрасенсов» приводят документальные доказательства того, как паранормальные способности способны помочь людям. В этом цикле экстрасенсы находят пропавших родственников и угнанные автомобили, избавляют жилище от привидений и возвращают супругов в семьи. В фильмах создается «эффект присутствия» - зритель выступает очевидцем всех этапов процесса расследования. Комментарии свидетелей – следователей, самих героев событий – подтверждают правдоподобность происходящего на экране. А особенный интерес вызывает то, как люди со сверхвозможностями существуют в своих привычных условиях жизни и работы.-Качество видео: SATRip
Формат видео: AVI
Видео кодек: Xvid
Аудио кодек: MP3
Видео: Xvid, 720x400, 25fps, 1 799kbps
Аудио: MP3, 48000Hz, 2 ch, 128kbps-

Раздача ведется путем добавления новых выпусков

Внимание! Раздача ведётся путём добавления новых выпусков; при каждом добавлении создётся новый торрент. Чтобы начать докачку нового выпуска, пользователям необходимо сделать следующее:
(1) остановить скачивание,
(2) удалить старый торрент у себя из клиента (старые выпуски удалять не надо),
(3) скачать новый торрент и запустить его у себя в клиенте вместо старого, при этом указать клиенту путь в старую папку куда и должно происходить скачивание новых выпусков.
Ваш клиент при этом должен произвести хеширование (проверку) старой папки (если не производит сам - помогите ему сделать это), и будет докачивать только те выпуски которых у вас ещё нет. Старые выпуски при этом не удаляются, а продолжают раздаваться!
Eсли вы уже удалили старые выпуски, то предотвратить повторную закачку старых выпусков можно, отжав галочку в соответсвующих местах при запуске нового торрента. По возможности, желательно не удалять старые выпуски как можно дольше чтобы релизёр не столько продолжал раздавать старые выпуски, а смог сконцентрироваться на новых.
-

MediaInfo

General
Format : AVI
Format/Info : Audio Video Interleave
File size : 937 MiB
Duration : 1h 7mn
Overall bit rate : 1 937 Kbps
Writing application : VirtualDubMod 1.5.10.3 | www.virtualdub-fr.org || (build 2550/release)
Writing library : VirtualDubMod build 2550/release
Video
ID : 0
Format : MPEG-4 Visual
Format profile : Advanced [email protected]
Format settings, BVOP : Yes
Format settings, QPel : No
Format settings, GMC : No warppoints
Format settings, Matrix : Default (H.263)
Codec ID : XVID
Codec ID/Hint : XviD
Duration : 1h 7mn
Bit rate : 1 800 Kbps
Width : 720 pixels
Height : 400 pixels
Display aspect ratio : 16:9
Frame rate : 25.000 fps
Color space : YUV
Chroma subsampling : 4:2:0
Bit depth : 8 bits
Scan type : Progressive
Compression mode : Lossy
Bits/(Pixel*Frame) : 0.250
Stream size : 870 MiB (93%)
Writing library : XviD 1.2.1 (UTC 2008-12-04)
Audio
ID : 1
Format : MPEG Audio
Format version : Version 1
Format profile : Layer 3
Mode : Joint stereo
Mode extension : MS Stereo
Codec ID : 55
Codec ID/Hint : MP3
Duration : 1h 7mn
Bit rate mode : Constant
Bit rate : 128 Kbps
Channel(s) : 2 channels
Sampling rate : 48.0 KHz
Compression mode : Lossy
Stream size : 61.9 MiB (7%)
Alignment : Aligned on interleaves
Interleave, duration : 40 ms (1.00 video frame)
Interleave, preload duration : 504 ms
Writing library : LAME3.99r
Encoding settings : -m j -V 4 -q 9 -lowpass 17 -b 128
-

Скриншоты





Последний раз редактировалось: kat222000 (2015-09-13 20:12), всего редактировалось 8 раз(а)

Создавать темы 16-Апр-2015 21:38

[Профиль]  [ЛС] 

kat222000 ®

Стаж: 6 лет 6 месяцев

Сообщений: 608

Симпатии: 1055

Обновляемся, добавлен 2 выпуск.

Создавать темы 19-Апр-2015 10:31

[Профиль]  [ЛС] 

Olga1368

Стаж: 5 лет 8 месяцев

Сообщений: 72

Симпатии: 12

Раздавайте пожалуйста...

Создавать темы 19-Апр-2015 15:29

[Профиль]  [ЛС] 

kat222000 ®

Стаж: 6 лет 6 месяцев

Сообщений: 608

Симпатии: 1055

Обновляемся, добавлен 4 выпуск.

Создавать темы 25-Апр-2015 23:02

[Профиль]  [ЛС] 

kat222000 ®

Стаж: 6 лет 6 месяцев

Сообщений: 608

Симпатии: 1055

Обновляемся, добавлен 5 выпуск.

Создавать темы 17-Май-2015 16:50

[Профиль]  [ЛС] 

sarbastrus

Стаж: 6 лет 11 месяцев

Сообщений: 28

Симпатии: 6

Статус: ∏ премодерация
Когда уже проверите!!??

Создавать темы 17-Май-2015 22:48

[Профиль]  [ЛС] 

Olga1368

Стаж: 5 лет 8 месяцев

Сообщений: 72

Симпатии: 12

kat222000, А скорость никак нельзя поднять? Вы с UO что ли?
Я тут за ночь 5 Gb раздала...А сейчас все почти стоит...

Создавать темы 21-Май-2015 08:28

[Профиль]  [ЛС] 

kat222000 ®

Стаж: 6 лет 6 месяцев

Сообщений: 608

Симпатии: 1055

937111kat222000, А скорость никак нельзя поднять? Вы с UO что ли?
Я тут за ночь 5 Gb раздала...А сейчас все почти стоит...
Как Скажите...Кукчайте...

Создавать темы 21-Май-2015 19:49

[Профиль]  [ЛС] 

sarbastrus

Стаж: 6 лет 11 месяцев

Сообщений: 28

Симпатии: 6

937111kat222000, А скорость никак нельзя поднять? Вы с UO что ли?
Я тут за ночь 5 Gb раздала...А сейчас все почти стоит...
Автор с ТПС

Создавать темы 21-Май-2015 20:17

[Профиль]  [ЛС] 

kat222000 ®

Стаж: 6 лет 6 месяцев

Сообщений: 608

Симпатии: 1055

937232
937111kat222000, А скорость никак нельзя поднять? Вы с UO что ли?
Я тут за ночь 5 Gb раздала...А сейчас все почти стоит...
Автор с ТПС
Всё то Вы Знаете.. aw

Создавать темы 21-Май-2015 22:18

[Профиль]  [ЛС] 

kat222000 ®

Стаж: 6 лет 6 месяцев

Сообщений: 608

Симпатии: 1055

Обновляемся, добавлен 6 выпуск.

Создавать темы 24-Май-2015 22:47

[Профиль]  [ЛС] 

kat222000 ®

Стаж: 6 лет 6 месяцев

Сообщений: 608

Симпатии: 1055

Обновляемся, добавлен 7 выпуск.

Создавать темы 31-Май-2015 16:08

[Профиль]  [ЛС] 

Olga1368

Стаж: 5 лет 8 месяцев

Сообщений: 72

Симпатии: 12

А новый выпуск будет или это все?

Создавать темы 11-Июн-2015 11:16

[Профиль]  [ЛС] 

kat222000 ®

Стаж: 6 лет 6 месяцев

Сообщений: 608

Симпатии: 1055

939979А новый выпуск будет или это все?
Пока тишина, как появиться, сразу будет тут и вам сообщу..

Создавать темы 11-Июн-2015 15:53

[Профиль]  [ЛС] 

kat222000 ®

Стаж: 6 лет 6 месяцев

Сообщений: 608

Симпатии: 1055

Обновляемся, добавлены 8-10 выпуски.

Создавать темы 06-Сен-2015 06:39

[Профиль]  [ЛС] 
Показать сообщения:    
Ответить на тему

Текущее время: 23-Окт 11:22

Часовой пояс: UTC + 5



Вы не можете начинать темы
Вы не можете отвечать на сообщения
Вы не можете редактировать свои сообщения
Вы не можете удалять свои сообщения
Вы не можете голосовать в опросах
Вы не можете прикреплять файлы к сообщениям
Вы не можете скачивать файлы