Пятьдесят оттенков серого / Fifty Shades of Grey (Сэм Тейлор-Джонсон) [2015, США, драма, мелодрама, HDRip] (Dub) (Sub Rus + Original Eng)

Ответить на тему
 

Bek90 ®

Стаж: 4 года 5 месяцев

Сообщений: 6

Симпатии: 15

Пятьдесят оттенков серого / Fifty Shades of Grey
Страна: США
Жанр: драма, мелодрама
Год выпуска: 2015
Продолжительность: 02:15:02
Перевод: Профессиональный (дублированный)
Cубтитры: русские
Оригинальная аудиодорожка: английский
Режиссер: Сэм Тейлор-Джонсон
В ролях: Джейми Дорнан, Дакота Джонсон, Дженнифер Или, Люк Граймс, Виктор Расук, Элоиза Мамфорд, Марша Гей, Харден Рита, Ора Макс Мартини Каллум, Кит Ренни
Описание: Анастейша Стил — скромная студентка, живущая вместе с близкой подругой-сокурсницей Кейт. За неделю до выпускного в университете, Анастейша, по просьбе заболевшей Кейт заменить её, берёт интервью у молодого красавца-миллиардера Кристиана Грея. Интервью складывается не очень удачно, и Анастейша не думает, что они когда-либо встретятся вновь. Неожиданно Грей появляется в хозяйственном магазине, где девушка работает продавцом. Их знакомство продолжается, и Анастейша постепенно узнаёт о тайных сексуальных увлечениях богача…
Качество видео: HDRip
Формат видео: MKV
Видео: 1277 kb/s
Аудио: AC3

MediaInfo

50.0ttenk0v.Ser0go.2015.D.WEB-DL.720p.mkv
Основная:
Unique ID:246352915388336046074440079147831852408 (0xB955D87D64AC021C93333AB9533AFD78)
Complete name:50.0ttenk0v.Ser0go.2015.D.WEB-DL.720p.mkv
Format:Matroska
Format version:Version 4 / Version 2
File size:3.83 GiB
Duration:2h 5mn
Overall bit rate:4 381 Kbps
Writing library:libebml v1.3.0 + libmatroska v1.4.1
Видео #0:
ID:1
Format:AVC
Format/Info:Advanced Video Codec
Format profile:[email protected]
Format settings, CABAC:No
Format settings, ReFrames:2 frames
Codec ID:V_MPEG4/ISO/AVC
Duration:2h 5mn
Bit rate:3 910 Kbps
Width:1 280 pixels
Height:532 pixels
Frame rate:23.976 fps
Color space:YUV
Bit depth:8 bits
Scan type:Progressive
Bits/(Pixel*Frame):0.239
Stream size:3.42 GiB (89%)
Language:English
Default:Yes
Forced:No
Color primaries:BT.709-5, BT.1361, IEC 61966-2-4, SMPTE RP177
Transfer characteristics:BT.709-5, BT.1361
Matrix coefficients:BT.709-5, BT.1361, IEC 61966-2-4 709, SMPTE RP177
Аудио #0:
ID:2
Format:AC-3
Format/Info:Audio Coding 3
Mode extension:CM (complete main)
Codec ID:A_AC3
Duration:2h 5mn
Bit rate mode:Constant
Bit rate:384 Kbps
Channel(s):6 channels
Sampling rate:48.0 KHz
Bit depth:16 bits
Compression mode:Lossy
Stream size:344 MiB (9%)
Language:Russian
Default:Yes
Forced:No

Скриншоты





Создавать темы 17-Апр-2015 17:57

[Профиль]  [ЛС] 

-OdilmaX-

Стаж: 2 года 5 месяцев

Сообщений: 425

Симпатии: 854

https://tas-ix.net/viewtopic.php?t=105345

Создавать темы 17-Апр-2015 18:41

[Профиль]  [ЛС] 

fdjon

Стаж: 2 года 5 месяцев

Сообщений: 25

Симпатии: 3

тебе разница видно здесь 3.83гб матроска а там 1.46 ??

Создавать темы 17-Апр-2015 20:32

[Профиль]  [ЛС] 

Топик был перенесен из форума Фильмы за 2015 в форум HD-AVC
Mixer City

Создавать темы 18-Апр-2015 00:47

 

Nemo

Стаж: 6 лет 7 месяцев

Сообщений: 74

Симпатии: 4

Какой тут секрет, как люди качают этот торрент? :) Есть какой-то обходной путь для скачки торрент-файла?

Создавать темы 19-Апр-2015 09:29

[Профиль]  [ЛС] 

Demuz

Стаж: 6 лет 9 месяцев

Сообщений: 23

Симпатии: 20

2.15....ээ это расширенная версия!???и когда можно скачать??

Создавать темы 21-Апр-2015 13:39

[Профиль]  [ЛС] 

beck8788

Стаж: 7 лет 3 месяца

Сообщений: 88

Симпатии: 1

когда-то премодерация закончится?
А то уже 10 день, как раздача добавилась... и скачан 13 раз...

Создавать темы 27-Апр-2015 11:35

[Профиль]  [ЛС] 

edgemza

Стаж: 6 лет 3 месяца

Сообщений: 191

Симпатии: 7

А когда остальные смогут скачать?! Зачем ставить "вечную" премодерацию, если это "недостойный" релиз?! Тогда уж сразу бы удалили!
Почему такая дискриминация - кто успел, тот и "съел"?! :(

Создавать темы 22-Май-2015 16:12

[Профиль]  [ЛС] 

bbk

Стаж: 6 лет 9 месяцев

Сообщений: 435

Симпатии: 479

937335А когда остальные смогут скачать?! Зачем ставить "вечную" премодерацию, если это "недостойный" релиз?! Тогда уж сразу бы удалили!
Почему такая дискриминация - кто успел, тот и "съел"?! :(
Продолжительность фильма здесь такая же 2:05:12 и ничего такого особенного нет и пиров мало, но кто не ищет легких путей -

Создавать темы 22-Май-2015 17:06

[Профиль]  [ЛС] 

edgemza

Стаж: 6 лет 3 месяца

Сообщений: 191

Симпатии: 7

Ох..... ну почему некоторые релизеры пытаются обмануть доверчевых трекетчан?!
Действительно, bbk, после вашего поста я посмотрел на тех.данные (в спойлере) и увидел что длительность не 2:15, как заявлено в раздаче, а 2:05 !!! :(
А я ведь только ради этих 10 минут хотел качать эту раздачу!!!
Спасибо, что открыли мне глаза!
Но всё-таки вроде как есть разница в качестве: здесь HDRip и 3 Гб, а "там" WEBDLRip и 1,5 Гб!

Создавать темы 22-Май-2015 22:35

[Профиль]  [ЛС] 
Показать сообщения:    
Ответить на тему

Текущее время: 19-Авг 08:48

Часовой пояс: UTC + 5



Вы не можете начинать темы
Вы не можете отвечать на сообщения
Вы не можете редактировать свои сообщения
Вы не можете удалять свои сообщения
Вы не можете голосовать в опросах
Вы не можете прикреплять файлы к сообщениям
Вы не можете скачивать файлы