Армия теней / L'armée des ombres (Жан-Пьер Мельвиль) [1969, Франция, Италия, драма, военный, HDRip] DVO

Ответить на тему
 

lotto ®

Стаж: 7 лет 9 месяцев

Сообщений: 221

Симпатии: 409

Армия теней / L'armée des ombres-- Страна: Франция, Италия
Жанр: драма, военный
Год выпуска: 1969
Продолжительность: 02:25:15
Перевод: Профессиональный (двухголосый закадровый)
Cубтитры: нет--Режиссер: Жан-Пьер Мельвиль
В ролях: Лино Вентура, Пол Мёрисс, Жан-Пьер Кассель, Симона Синьоре, Клод Манн, Поль Кроше, Кристиан Барбье, Серж Реджани, Андре Деваврен, Ален Декок--Описание: Филиппу Гербье, одному из руководителей Сопротивления, дважды удается бежать от гестаповцев. Его спасает Матильда, которая становится ему преданным соратником и другом. Возглавляемая ими группа наносит немцам крайне опасные точечные удары. В ответ гестапо проворачивает хитроумную операцию и захватывает в заложники дочь Матильды. Ей предложено продать организацию или дочь умрет в муках. У Матильды остается только один выход, который она и предлагает Филиппу…-- --Качество видео: HDRip
Формат видео: AVI
Видео: XviD, 704x384, 1307 kbps, 23.976 fps
Аудио: MP3, 48 KHz, 2 ch, 128 kbps (русский, двухголосый)

MediaInfo

General
Complete name : \Army in the Shadows.1969.HDRip.avi
Format : AVI
Format/Info : Audio Video Interleave
File size : 1.46 GiB
Duration : 2h 25mn
Overall bit rate : 1 444 Kbps
Writing application : VirtualDubMod 1.5.10.2 (build 2540/release)
Writing library : VirtualDubMod build 2540/release
Video
ID : 0
Format : MPEG-4 Visual
Format profile : Advanced [email protected]
Format settings, BVOP : 1
Format settings, QPel : No
Format settings, GMC : No warppoints
Format settings, Matrix : Default (MPEG)
Codec ID : XVID
Codec ID/Hint : XviD
Duration : 2h 25mn
Bit rate : 1 307 Kbps
Width : 704 pixels
Height : 384 pixels
Display aspect ratio : 1.85:1
Frame rate : 23.976 fps
Color space : YUV
Chroma subsampling : 4:2:0
Bit depth : 8 bits
Scan type : Progressive
Compression mode : Lossy
Bits/(Pixel*Frame) : 0.202
Stream size : 1.33 GiB (90%)
Writing library : XviD 1.2.1 (UTC 2008-12-04)
Audio
ID : 1
Format : MPEG Audio
Codec ID : 55
Codec ID/Hint : MP3
Duration : 2h 25mn
Bit rate : 128 Kbps
Channel(s) : 2 channels
Sampling rate : 48.0 KHz
Compression mode : Lossy
Stream size : 133 MiB (9%)
Alignment : Split accross interleaves
Interleave, duration : 42 ms (1.00 video frame)
Interleave, preload duratio : 504 ms

Скриншот c названием фильма

Скриншоты





Создавать темы 17-Апр-2015 21:43

[Профиль]  [ЛС] 
Показать сообщения:    
Ответить на тему

Текущее время: 20-Окт 21:19

Часовой пояс: UTC + 5



Вы не можете начинать темы
Вы не можете отвечать на сообщения
Вы не можете редактировать свои сообщения
Вы не можете удалять свои сообщения
Вы не можете голосовать в опросах
Вы не можете прикреплять файлы к сообщениям
Вы не можете скачивать файлы