Телефонная будка / Phone Booth (Джоэл Шумахер / Joel Schumacher) [2002, США, триллер, DVDRip] (DVO)

Ответить на тему
 

inkus ®

Стаж: 7 лет 5 месяцев

Сообщений: 50

Симпатии: 39

Телефонная будка / Phone Booth
Страна: США
Жанр: триллер
Год выпуска: 2002
Продолжительность: 01:17:42
Перевод: Профессиональный (двухголосый закадровый)
Cубтитры: нет
Режиссер: Джоэл Шумахер / Joel Schumacher
В ролях: Колин Фаррелл, Кифер Сазерленд, Форест Уайтекер, Рада Митчелл, Кейти Холмс, Пола Джей Паркер
Описание: Нью-йоркский журналист Стюарт Шепард отзывается на звонок, разрывающий уличную телефонную будку. Его неосторожность оборачивается ему боком: человек на том конце провода заявляет, что если Шепард положит трубку и выйдет из будки, он его пристрелит. И это не пустая угроза — Шепард ощущает на себе красный глазок лазерного прицела засевшего напротив снайпера. Все проблемы, мучившие его раньше, теперь потеряли всякий смысл. Сейчас он должен заглянуть себе в душу настолько глубоко, чтобы найти там силы стать героем.
Качество видео: DVDRip
Формат видео: AVI
Видео: 720x304 (2.37:1), 25 fps, XviD build 9 ~866 kbps avg, 0.16 bit/pixel
Аудио: 48 kHz, AC3 Dolby Digital, 3/2 (L,C,R,l,r) + LFE ch, ~384 kbps

MediaInfo

Общее
Полное имя : D:\мои раздачи\Telefonnaya budka.2002.XviD.DVDRip.avi
Формат : AVI
Формат/Информация : Audio Video Interleave
Размер файла : 1,37 Гбайт
Продолжительность : 1 ч. 17 м.
Общий поток : 2520 Кбит/сек
Программа кодирования : VirtualDubMod 1.5.4.1 (build 2178/release)
Библиотека кодирования : VirtualDubMod build 2178/release
Видео
Идентификатор : 0
Формат : MPEG-4 Visual
Профиль формата : Advanced [email protected]
Параметр BVOP формата : 1
Параметр QPel формата : Нет
Параметр GMC формата : Без точки перехода
Параметр матрицы формата : Выборочная
Идентификатор кодека : XVID
Идентификатор кодека/Подсказка : XviD
Продолжительность : 1 ч. 17 м.
Битрейт : 2129 Кбит/сек
Ширина : 720 пикселей
Высота : 304 пикселя
Соотношение сторон : 2,35:1
Частота кадров : 25,000 кадров/сек
Цветовое пространство : YUV
Субдискретизация насыщенности : 4:2:0
Битовая глубина : 8 бит
Тип развёртки : Прогрессивная
Метод сжатия : С потерями
Бит/(Пиксели*Кадры) : 0.389
Размер потока : 1,16 Гбайт (84%)
Библиотека кодирования : XviD 1.2.0.dev47 (UTC 2006-11-01)
Аудио
Идентификатор : 1
Формат : AC-3
Формат/Информация : Audio Coding 3
Расширение режима : CM (complete main)
Параметр Endianness формата : Big
Идентификатор кодека : 2000
Продолжительность : 1 ч. 17 м.
Вид битрейта : Постоянный
Битрейт : 384 Кбит/сек
Каналы : 6 каналов
Расположение каналов : Front: L C R, Side: L R, LFE
Частота : 48,0 КГц
Битовая глубина : 16 бит
Метод сжатия : С потерями
Размер потока : 213 Мбайт (15%)
Выравнивание : Разделение по промежуткам
Продолжительность промежутка : 96 мс. (2,40 видеокадра)
Время предзагрузки промежутка : 96 мс.
Язык : Russian

Скриншот c названием фильма

Скриншоты





Последний раз редактировалось: inkus (2015-04-18 22:34), всего редактировалось 1 раз

Создавать темы 18-Апр-2015 13:59

[Профиль]  [ЛС] 

DXgame

Стаж: 5 лет

Сообщений: 128

Симпатии: 144

Xiwang, Скриншоты в нашу галерею -> http://img.tas-ix.net/

Создавать темы 18-Апр-2015 20:51

[Профиль]  [ЛС] 

inkus ®

Стаж: 7 лет 5 месяцев

Сообщений: 50

Симпатии: 39

931854Xiwang, Скриншоты в нашу галерею -> http://img.tas-ix.net/
исправлено aa

Создавать темы 18-Апр-2015 22:35

[Профиль]  [ЛС] 
Показать сообщения:    
Ответить на тему

Текущее время: 19-Окт 06:56

Часовой пояс: UTC + 5



Вы не можете начинать темы
Вы не можете отвечать на сообщения
Вы не можете редактировать свои сообщения
Вы не можете удалять свои сообщения
Вы не можете голосовать в опросах
Вы не можете прикреплять файлы к сообщениям
Вы не можете скачивать файлы