Исход: Цари и боги / Exodus: Gods and Kings (Ридли Скотт) [2014, Великобритания, США, Испания, боевик, драма, приключения, HDRip] (Dub) (Sub Eng + Original Rus)

Ответить на тему
 

Bek90 ®

Стаж: 4 года 7 месяцев

Сообщений: 6

Симпатии: 15

Исход: Цари и боги / Exodus: Gods and Kings
Страна: Великобритания, США, Испания
Жанр: боевик, драма, приключения
Год выпуска: 2014
Продолжительность: 02:30:20
Перевод: Профессиональный (дублированный)
Cубтитры: английские
Оригинальная аудиодорожка: русский
Режиссер: Ридли Скотт
В ролях: Кристиан Бэйл, Джоэл Эдгертон, Джон Туртурро, Аарон Пол, Бен Мендельсон, Мария Вальверде, Сигурни Уивер, Бен Кингсли, Хиам Аббасс, Исаак Эндрюс
Описание: Ветхозаветная история о великом пророке Моисее и освобождении еврейского народа из египетского плена. Моисей появился на свет в те времена, когда фараон приказал убивать всех новорожденных мальчиков еврейского происхождения. Чтобы спасти его, мать положила малыша в корзину из тростника и отправила вниз по Нилу.
Ребенка нашла дочь фараона, которая усыновила его и растила рядом с Рамсесом — будущим фараоном. Много лет спустя, став мужчиной, Моисей бежит из Египта, а затем возвращается туда по велению Господа, чтобы избавить свой народ от оков рабства…
Качество видео: HDRip
Формат видео: MKV
Видео: 1920x800p (2.40:1), 23.976 fps, AVC MPEG-4 (H.264), [email protected] ~8827 kbps, 0.240 bit/pixel
Аудио: Русский: 48 kHz, AC3 Dolby Digital, 6 ch, ~448 kbps [Профессиональный (полное дублирование)]

MediaInfo

General
Unique ID : 195628821864017938008549994190401990042 (0x932CBD980C297DC185F74CBA3DD06D9A)
Complete name : D:Exodus.Gods.and.Kings.2014.BDRip.1080p.Rus.Ukr.Eng.mkv
Format : Matroska
Format version : Version 2
File size : 11.5 GiB
Duration : 2h 30mn
Overall bit rate : 11.0 Mbps
Movie name : Исход: Цари и боги / Exodus: Gods and Kings (2014)
Encoded date : UTC 2015-04-05 18:37:50
Writing application : mkvmerge v5.8.0 ('No Sleep / Pillow') built on Sep 2 2012 15:37:04
Writing library : libebml v1.2.3 + libmatroska v1.3.0
Attachements : cover.png / logfile.log
Video
ID : 1
Format : AVC
Format/Info : Advanced Video Codec
Format profile : [email protected]
Format settings, CABAC : Yes
Format settings, ReFrames : 5 frames
Codec ID : V_MPEG4/ISO/AVC
Duration : 2h 30mn
Bit rate : 8 827 Kbps
Width : 1 920 pixels
Height : 800 pixels
Display aspect ratio : 2.40:1
Frame rate mode : Constant
Frame rate : 23.976 fps
Color space : YUV
Chroma subsampling : 4:2:0
Bit depth : 8 bits
Scan type : Progressive
Bits/(Pixel*Frame) : 0.240
Stream size : 9.03 GiB (78%)
Title : Исход: Цари и боги / Exodus: Gods and Kings (2014)
Writing library : x264 core 146 r2538 121396c
Encoding settings : cabac=1 / ref=5 / deblock=1:-3:-3 / analyse=0x3:0x133 / me=umh / subme=11 / psy=1 / psy_rd=1.00:0.00 / mixed_ref=1 / me_range=32 / chroma_me=1 / trellis=2 / 8x8dct=1 / cqm=0 / deadzone=21,11 / fast_pskip=0 / chroma_qp_offset=-2 / threads=12 / lookahead_threads=3 / sliced_threads=0 / nr=0 / decimate=0 / interlaced=0 / bluray_compat=0 / constrained_intra=0 / bframes=10 / b_pyramid=2 / b_adapt=2 / b_bias=0 / direct=3 / weightb=1 / open_gop=0 / weightp=2 / keyint=240 / keyint_min=23 / scenecut=40 / intra_refresh=0 / rc=2pass / mbtree=0 / bitrate=8827 / ratetol=1.0 / qcomp=0.60 / qpmin=0 / qpmax=69 / qpstep=4 / cplxblur=20.0 / qblur=0.5 / ip_ratio=1.40 / pb_ratio=1.30 / aq=1:1.00
Language : English
Default : Yes
Forced : No
Audio #1
ID : 2
Format : AC-3
Format/Info : Audio Coding 3
Mode extension : CM (complete main)
Format settings, Endianness : Big
Codec ID : A_AC3
Duration : 2h 30mn
Bit rate mode : Constant
Bit rate : 448 Kbps
Channel(s) : 6 channels
Channel positions : Front: L C R, Side: L R, LFE
Sampling rate : 48.0 KHz
Bit depth : 16 bits
Compression mode : Lossy
Stream size : 482 MiB (4%)
Title : Дубляж, Blu-ray EUR
Language : Russian
Default : Yes
Forced : No
Audio #2
ID : 3
Format : AC-3
Format/Info : Audio Coding 3
Mode extension : CM (complete main)
Format settings, Endianness : Big
Codec ID : A_AC3
Duration : 2h 30mn
Bit rate mode : Constant
Bit rate : 640 Kbps
Channel(s) : 6 channels
Channel positions : Front: L C R, Side: L R, LFE
Sampling rate : 48.0 KHz
Bit depth : 16 bits
Compression mode : Lossy
Stream size : 688 MiB (6%)
Title : Одноголосый закадровый, Д.Есарев
Language : Russian
Default : No
Forced : No
Audio #3
ID : 4
Format : AC-3
Format/Info : Audio Coding 3
Mode extension : CM (complete main)
Format settings, Endianness : Big
Codec ID : A_AC3
Duration : 2h 30mn
Bit rate mode : Constant
Bit rate : 448 Kbps
Channel(s) : 6 channels
Channel positions : Front: L C R, Side: L R, LFE
Sampling rate : 48.0 KHz
Bit depth : 16 bits
Compression mode : Lossy
Stream size : 482 MiB (4%)
Title : Дубляж, Blu-ray EUR
Language : Ukrainian
Default : No
Forced : No
Audio #4
ID : 5
Format : AC-3
Format/Info : Audio Coding 3
Mode extension : CM (complete main)
Format settings, Endianness : Big
Codec ID : A_AC3
Duration : 2h 30mn
Bit rate mode : Constant
Bit rate : 640 Kbps
Channel(s) : 6 channels
Channel positions : Front: L C R, Side: L R, LFE
Sampling rate : 48.0 KHz
Bit depth : 16 bits
Compression mode : Lossy
Stream size : 688 MiB (6%)
Title : English
Language : English
Default : No
Forced : No
Text #1
ID : 6
Format : UTF-8
Codec ID : S_TEXT/UTF8
Codec ID/Info : UTF-8 Plain Text
Title : Russian (Forced)
Language : Russian
Default : Yes
Forced : No
Text #2
ID : 7
Format : UTF-8
Codec ID : S_TEXT/UTF8
Codec ID/Info : UTF-8 Plain Text
Title : Russian
Language : Russian
Default : No
Forced : No
Text #3
ID : 8
Format : UTF-8
Codec ID : S_TEXT/UTF8
Codec ID/Info : UTF-8 Plain Text
Title : Ukrainian (Forced)
Language : Ukrainian
Default : No
Forced : No
Text #4
ID : 9
Format : UTF-8
Codec ID : S_TEXT/UTF8
Codec ID/Info : UTF-8 Plain Text
Title : Ukrainian
Language : Ukrainian
Default : No
Forced : No
Text #5
ID : 10
Format : UTF-8
Codec ID : S_TEXT/UTF8
Codec ID/Info : UTF-8 Plain Text
Title : English
Language : English
Default : No
Forced : No
Text #6
ID : 11
Format : UTF-8
Codec ID : S_TEXT/UTF8
Codec ID/Info : UTF-8 Plain Text
Title : English (SDH)
Language : English
Default : No
Forced : No
Text #7
ID : 12
Format : UTF-8
Codec ID : S_TEXT/UTF8
Codec ID/Info : UTF-8 Plain Text
Title : English (SDH Colored)
Language : English
Default : No
Forced : No
Menu
00:00:00.000 : :Chapter 01
00:03:55.401 : :Chapter 02
00:06:51.994 : :Chapter 03
00:11:47.707 : :Chapter 04
00:14:29.451 : :Chapter 05
00:18:37.658 : :Chapter 06
00:22:15.834 : :Chapter 07
00:26:51.151 : :Chapter 08
00:30:31.287 : :Chapter 09
00:36:41.365 : :Chapter 10
00:40:48.320 : :Chapter 11
00:44:49.937 : :Chapter 12
00:48:47.799 : :Chapter 13
00:51:16.448 : :Chapter 14
00:54:22.217 : :Chapter 15
00:57:32.657 : :Chapter 16
01:00:31.169 : :Chapter 17
01:04:41.544 : :Chapter 18
01:06:49.046 : :Chapter 19
01:11:01.882 : :Chapter 20
01:16:53.692 : :Chapter 21
01:21:18.039 : :Chapter 22
01:24:30.356 : :Chapter 23
01:28:08.533 : :Chapter 24
01:30:54.157 : :Chapter 25
01:34:14.565 : :Chapter 26
01:37:20.543 : :Chapter 27
01:39:20.204 : :Chapter 28
01:42:40.320 : :Chapter 29
01:46:50.070 : :Chapter 30
01:49:02.661 : :Chapter 31
01:52:18.314 : :Chapter 32
01:57:29.876 : :Chapter 33
02:00:23.841 : :Chapter 34
02:05:41.325 : :Chapter 35
02:07:31.268 : :Chapter 36
02:13:38.468 : :Chapter 37
02:16:21.882 : :Chapter 38
02:19:39.996 : :Chapter 39
02:23:19.799 : :Chapter 40

Скриншоты





Создавать темы 18-Апр-2015 14:16

[Профиль]  [ЛС] 

Топик был перенесен из форума Фильмы за 2015 в форум HD-AVC
Grock

Создавать темы 18-Апр-2015 23:39

 

Nightout1

Стаж: 4 года 11 месяцев

Сообщений: 30

Симпатии: 3

не понял так раздача будет или нет ?

Создавать темы 19-Апр-2015 20:33

[Профиль]  [ЛС] 
Показать сообщения:    
Ответить на тему

Текущее время: 24-Окт 03:48

Часовой пояс: UTC + 5



Вы не можете начинать темы
Вы не можете отвечать на сообщения
Вы не можете редактировать свои сообщения
Вы не можете удалять свои сообщения
Вы не можете голосовать в опросах
Вы не можете прикреплять файлы к сообщениям
Вы не можете скачивать файлы