Квартирка Джо / Joe's Apartment (Джон Пейсон / John Payson) [1996, США, мюзикл, фэнтези, комедия, DVDRip] [Широкоформатная версия] (MVO : Варус Видео) (Original Eng)

Ответить на тему
 

inkus ®

Стаж: 7 лет 4 месяца

Сообщений: 50

Симпатии: 39

Квартирка Джо / Joe's Apartment / Широкоформатная версия
Страна: США
Жанр: мюзикл, фэнтези, комедия
Год выпуска: 1996
Продолжительность: 01:19:54
Перевод: Профессиональный (многоголосый закадровый) Варус Видео
Cубтитры: нет
Оригинальная аудиодорожка: английский
Режиссер: Джон Пейсон / John Payson
В ролях: Джерри О'Коннелл, Миган Уорд, Джим Тернер, Сандра Дентон, Роберт Вон, Дон Хо, Джим Стерлинг, Шик Махмуд-Бей
Описание: Джо Гротовски, молодой человек прибывает в Нью-Йорк и поселяется в доме, предназначенном на снос. Этот дом — пристанище нищих и подозрительных типов и, главное, — тараканов. Тараканы, выступающие в картине крупным планом, черные и рыжие, — они могут говорить, петь, танцевать и многое другое.
И получается, что именно тараканы становятся подлинными хозяевами квартиры полюбившегося им Джо, равно как и судьбы самого молодого человека и его девушки
Качество видео: DVDRip
Формат видео: AVI
Видео: XviD, 576x432 (1.33:1), 23.976 fps, 2161 kbps avg
Аудио: AC-3, 2 канала, 192 Кбит/сек (Русский многоголосый)
Аудио 2: MP3, 2 канала, 105 Кбит/сек (русский авторский)
Аудио 3: MP3, 2 канала, 116 Кбит/сек (English)

MediaInfo

Видео
Идентификатор : 0
Формат : MPEG-4 Visual
Профиль формата : Advanced [email protected]
Параметр BVOP формата : 1
Параметр QPel формата : Нет
Параметр GMC формата : Без точки перехода
Параметр матрицы формата : Выборочная
Идентификатор кодека : XVID
Идентификатор кодека/Подсказка : XviD
Продолжительность : 1 ч. 19 м.
Битрейт : 2164 Кбит/сек
Ширина : 576 пикселей
Высота : 432 пикселя
Соотношение сторон : 4:3
Частота кадров : 23,976 кадра/сек
Цветовое пространство : YUV
Субдискретизация насыщенности : 4:2:0
Битовая глубина : 8 бит
Тип развёртки : Прогрессивная
Метод сжатия : С потерями
Бит/(Пиксели*Кадры) : 0.363
Размер потока : 1,21 Гбайт (83%)
Библиотека кодирования : XviD 1.2.0.dev47 (UTC 2006-11-01)
Аудио #1
Идентификатор : 1
Формат : AC-3
Формат/Информация : Audio Coding 3
Расширение режима : CM (complete main)
Параметр Endianness формата : Big
Идентификатор кодека : 2000
Продолжительность : 1 ч. 19 м.
Вид битрейта : Постоянный
Битрейт : 192 Кбит/сек
Каналы : 2 канала
Расположение каналов : Front: L R
Частота : 48,0 КГц
Битовая глубина : 16 бит
Метод сжатия : С потерями
Задержка видео : 16 мс.
Размер потока : 110 Мбайт (7%)
Выравнивание : Разделение по промежуткам
Продолжительность промежутка : 96 мс. (2,30 видеокадра)
Время предзагрузки промежутка : 96 мс.
Язык : Russian
Аудио #2
Идентификатор : 2
Формат : MPEG Audio
Версия формата : Version 1
Профиль формата : Layer 3
Режим : Joint stereo
Расширение режима : MS Stereo
Идентификатор кодека : 55
Идентификатор кодека/Подсказка : MP3
Продолжительность : 1 ч. 19 м.
Вид битрейта : Переменный
Битрейт : 105 Кбит/сек
Каналы : 2 канала
Частота : 48,0 КГц
Метод сжатия : С потерями
Размер потока : 59,9 Мбайт (4%)
Выравнивание : Соединение по промежуткам
Продолжительность промежутка : 24 мс. (0,58 видеокадр)
Время предзагрузки промежутка : 489 мс.
Язык : Russian
Аудио #3
Идентификатор : 3
Формат : MPEG Audio
Версия формата : Version 1
Профиль формата : Layer 3
Режим : Joint stereo
Расширение режима : MS Stereo
Идентификатор кодека : 55
Идентификатор кодека/Подсказка : MP3
Продолжительность : 1 ч. 19 м.
Вид битрейта : Переменный
Битрейт : 116 Кбит/сек
Каналы : 2 канала
Частота : 48,0 КГц
Метод сжатия : С потерями
Размер потока : 66,2 Мбайт (4%)
Выравнивание : Соединение по промежуткам
Продолжительность промежутка : 24 мс. (0,58 видеокадр)
Время предзагрузки промежутка : 150 мс.
Библиотека кодирования : LAME3.98
Язык : English

Скриншот c названием фильма

Скриншоты



Создавать темы 18-Апр-2015 14:52

[Профиль]  [ЛС] 
Показать сообщения:    
Ответить на тему

Текущее время: 21-Сен 04:49

Часовой пояс: UTC + 5



Вы не можете начинать темы
Вы не можете отвечать на сообщения
Вы не можете редактировать свои сообщения
Вы не можете удалять свои сообщения
Вы не можете голосовать в опросах
Вы не можете прикреплять файлы к сообщениям
Вы не можете скачивать файлы