Мужчины, женщины и дети / Men, Women & Children (Джейсон Рейтмен) [2014, США / Paramount Pictures, Right of Way Films, Драма, комедия, HDRip] [iTunes])

Ответить на тему
 

mp1988 ®

Стаж: 6 лет 6 месяцев

Сообщений: 607

Симпатии: 971

Мужчины, женщины и дети / Men, Women & Children
Страна: США / Paramount Pictures, Right of Way Films
Жанр: Драма, комедия
Год выпуска: 2014
Продолжительность: 01:59:27--Перевод: Профессиональный (дублированный) [iTunes]
Cубтитры: нет
Оригинальная аудиодорожка: английский--Режиссер: Джейсон Рейтмен--В ролях: Адам Сэндлер, Дженнифер Гарнер, Розмари ДеУитт, Джуди Грир, Дин Норрис, Эмма Томпсон, Тимоти Чаламет, Оливия Крочиккия, Кейтлин Девер, Энсел Элгорт--Описание: История о группе подростков и их родителях, которые пытаются понять, как интернет изменил их отношения, их связь, самооценку и любовь друг к другу.-- --Качество видео: HDRip
Формат видео: AVI
Видео: 1668 kb/s, 720x400
Аудио: Russian / English: AC3, 384 kb/s (6 ch)

MediaInfo

Общее
Полное имя : D:\FILM\Men.Women.&.Children.2014.D.HDRip.2100MB.avi
Формат : AVI
Формат/Информация : Audio Video Interleave
Профиль формата : OpenDML
Размер файла : 2,05 Гбайт
Продолжительность : 1 ч. 59 м.
Общий поток : 2455 Кбит/сек
Название фильма : Mujchiny.Jenshiny.i.Deti.2014.P.HDRip.2100MB.uniongang.tv
Режиссёр : 3imeMachi9e
Программа кодирования : VirtualDubMod 1.5.10.3 | www.virtualdub-fr.org || (build 2550/release)
Правообладатель : UNIONGANG&RUSTORRENTS
Видео
Идентификатор : 0
Формат : MPEG-4 Visual
Профиль формата : Advanced [email protected]
Параметр BVOP формата : 2
Параметр QPel формата : Нет
Параметр GMC формата : Без точки перехода
Параметр матрицы формата : Default (MPEG)
Идентификатор кодека : XVID
Идентификатор кодека/Подсказка : XviD
Продолжительность : 1 ч. 59 м.
Битрейт : 1668 Кбит/сек
Ширина : 720 пикселей
Высота : 400 пикселей
Соотношение сторон : 16:9
Частота кадров : 23,976 кадра/сек
Цветовое пространство : YUV
Субдискретизация насыщенности : 4:2:0
Битовая глубина : 8 бит
Тип развёртки : Прогрессивная
Метод сжатия : С потерями
Бит/(Пиксели*Кадры) : 0.242
Размер потока : 1,39 Гбайт (68%)
Библиотека кодирования : XviD 1.2.1 (UTC 2008-12-04)
Аудио #1
Идентификатор : 1
Формат : AC-3
Формат/Информация : Audio Coding 3
Расширение режима : CM (complete main)
Параметр Endianness формата : Big
Идентификатор кодека : 2000
Продолжительность : 1 ч. 59 м.
Вид битрейта : Постоянный
Битрейт : 384 Кбит/сек
Каналы : 6 каналов
Расположение каналов : Front: L C R, Side: L R, LFE
Частота : 48,0 КГц
Битовая глубина : 16 бит
Метод сжатия : С потерями
Размер потока : 328 Мбайт (16%)
Выравнивание : Разделение по промежуткам
Продолжительность промежутка : 42 мс. (1,00 видеокадр)
Время предзагрузки промежутка : 500 мс.
Аудио #2
Идентификатор : 2
Формат : AC-3
Формат/Информация : Audio Coding 3
Расширение режима : CM (complete main)
Параметр Endianness формата : Big
Идентификатор кодека : 2000
Продолжительность : 1 ч. 59 м.
Вид битрейта : Постоянный
Битрейт : 384 Кбит/сек
Каналы : 6 каналов
Расположение каналов : Front: L C R, Side: L R, LFE
Частота : 48,0 КГц
Битовая глубина : 16 бит
Метод сжатия : С потерями
Размер потока : 328 Мбайт (16%)
Выравнивание : Разделение по промежуткам

Скриншоты



Создавать темы 19-Апр-2015 14:32

[Профиль]  [ЛС] 
Показать сообщения:    
Ответить на тему

Текущее время: 22-Авг 10:34

Часовой пояс: UTC + 5



Вы не можете начинать темы
Вы не можете отвечать на сообщения
Вы не можете редактировать свои сообщения
Вы не можете удалять свои сообщения
Вы не можете голосовать в опросах
Вы не можете прикреплять файлы к сообщениям
Вы не можете скачивать файлы