Деволюция человека / Human Devolution (Майкл Кремо / Maykl Kremo)[2009 г., Научно-популярный, HDRip]

Ответить на тему
 

Spacer ®

Стаж: 2 года 5 месяцев

Сообщений: 11


Деволюция Человека / Human Devolution
--Год выпуска: 2009
Страна: США
Жанр: Научно-популярный
Продолжительность: 00:43:56
Перевод: Профессиональный (одноголосый)-

Описание:Сегодня наиболее распространенный ответ на вопрос о происхождении человека приходит от современных последователей Чарльза Дарвина. По мнению эволюционистов, жизнь на Земле началась между двумя и тремя миллиардами лет назад, первые человекообразные обезьяны появились приблизительно 40 миллионов лет назад, первый обезьяноподобный человек появился около 6 миллионов лет назад, и, наконец, человек, подобный нам с вами - 100-150 тысяч лет назад.
В этом динамичном фильме с обилием иллюстраций и анимированной графики Майкл Кремо - антрополог, историк археологии и писатель, представляет малоизвестные вследствие процесса информационной фильтрации свидетельства, указывающие на то, что человек существовал с самого зарождения жизни на Земле.

-

Качество: HDRip
Формат: MPEG
Видео кодек: AVC - Advanced Video Codec
Аудио кодек: AAC
Видео: 1 766 Kbps 1 280 x 720 at 25.000 fps
Аудио: 192 Kbps 2 channels, 44.1 KHz
-
--

MI

Format : MPEG-4
Format profile : Base Media / Version 2
Codec ID : mp42
File size : 616 MiB
Duration : 43mn 56s
Overall bit rate mode : Variable
Overall bit rate : 1 960 Kbps
Encoded date : UTC 2013-12-11 01:16:38
Tagged date : UTC 2013-12-11 01:16:38
gsst : 0
gstd : 2636346
gssd : B4A7DDA62MH1392650528949768
gshh : r2---sn-4g57kuez.googlevideo.com
Video #1
ID : 1
Format : AVC
Format/Info : Advanced Video Codec
Format profile : [email protected]
Format settings, CABAC : Yes
Format settings, ReFrames : 1 frame
Format settings, GOP : M=1, N=60
Codec ID : avc1
Codec ID/Info : Advanced Video Coding
Duration : 43mn 56s
Bit rate : 1 766 Kbps
Maximum bit rate : 9 638 Kbps
Width : 1 280 pixels
Height : 720 pixels
Display aspect ratio : 16:9
Frame rate mode : Constant
Frame rate : 25.000 fps
Color space : YUV
Chroma subsampling : 4:2:0
Bit depth : 8 bits
Scan type : Progressive
Bits/(Pixel*Frame) : 0.077
Stream size : 555 MiB (90%)
Tagged date : UTC 2013-12-11 01:19:40
Audio #2
ID : 2
Format : AAC
Format/Info : Advanced Audio Codec
Format profile : LC
Codec ID : 40
Duration : 43mn 56s
Bit rate mode : Variable
Bit rate : 192 Kbps
Maximum bit rate : 201 Kbps
Channel(s) : 2 channels
Channel positions : Front: L R
Sampling rate : 44.1 KHz
Compression mode : Lossy
Stream size : 60.3 MiB (10%)
Title : IsoMedia File Produced by Google, 5-11-2011
Encoded date : UTC 2013-12-11 01:18:17
Tagged date : UTC 2013-12-11 01:19:40

Скриншоты


Создавать темы 19-Апр-2015 17:23

[Профиль]  [ЛС] 
Показать сообщения:    
Ответить на тему

Текущее время: 18-Окт 19:59

Часовой пояс: UTC + 5



Вы не можете начинать темы
Вы не можете отвечать на сообщения
Вы не можете редактировать свои сообщения
Вы не можете удалять свои сообщения
Вы не можете голосовать в опросах
Вы не можете прикреплять файлы к сообщениям
Вы не можете скачивать файлы