Кандидат от Манчжурии / The Manchurian Candidate (Джон Франкенхаймер) [1962, США, триллер, детектив, BDRip-AVC] (MVO) (Sub Eng + Original Eng)

Ответить на тему
 

lotto ®

Стаж: 7 лет 10 месяцев

Сообщений: 221

Симпатии: 409

Кандидат от Манчжурии / The Manchurian Candidate
«When you've seen it all, you'll swear there's never been anything like it!»
-- Страна: США
Жанр: триллер, детектив
Год выпуска: 1962
Продолжительность: 02:06:32
Перевод: Профессиональный (многоголосый закадровый)
Cубтитры: английские
Оригинальная аудиодорожка: английский--Режиссер: Джон Франкенхаймер
В ролях: Фрэнк Синатра, Лоуренс Харви, Джанет Ли, Анджела Лэнсбери, Генри Сильва, Джеймс Грегори, Лесли Пэрриш, Джон МакГайвер, Най Диех, Джеймс Эдвардс, Дуглас Хендерсон, Альберт Полсен, Бэрри Келли, Ллойд Корригэн, Мадам Спиви, Джо Адамс, Фрэнк Бассо, Мэри Бенуа, Уит Бисселл, Никки Блэр, Мерритт Бон--Описание: Южная Корея. 1952 год. Отряд американских солдат попадает в окружение и только чудом спасшиеся девять человек под командованием Раймонда Шоу возвращаются на родину в США. Раймонд за эту операцию получает почетную медаль конгресса, но он не помнит, ни как они выходили из окружения, ни многих подробностей боя… Постепенно выясняется, что в Корее военнопленным методом гипноза и психотропными препаратами «промыли мозги»...-- --Качество видео: BDRip-AVC
Формат видео: MKV
Видео: H.264, 1056x604, 2705 kbps, 23.98 fps
Аудио: AC3, 48 kHz, 2 ch, 192 kbps (русский, многоголосый)
Аудио 2: AC3, 48 kHz, 6 ch, 384 kbps (английский)

MediaInfo

General
Unique ID : 191565776509185039737709668999785402485 (0x901E39FDDCC814ACA41C8D727294D075)
Complete name : \The.Manchurian.Candidate(1962)_BDrip-AVC.by.Atropos.mkv
Format : Matroska
Format version : Version 2
File size : 2.90 GiB
Duration : 2h 6mn
Overall bit rate : 3 283 Kbps
Movie name : The Manchurian Candidate (1962) rip by Atropos
Encoded date : UTC 2011-03-08 18:37:08
Writing application : mkvmerge v3.3.0 ('Language') built on Mar 24 2010 14:59:24
Writing library : libebml v0.8.0 + libmatroska v0.9.0
Video
ID : 1
Format : AVC
Format/Info : Advanced Video Codec
Format profile : [email protected]
Format settings, CABAC : Yes
Format settings, ReFrames : 10 frames
Codec ID : V_MPEG4/ISO/AVC
Duration : 2h 6mn
Bit rate : 2 705 Kbps
Width : 1 056 pixels
Height : 604 pixels
Display aspect ratio : 16:9
Frame rate mode : Constant
Frame rate : 23.976 fps
Color space : YUV
Chroma subsampling : 4:2:0
Bit depth : 8 bits
Scan type : Progressive
Bits/(Pixel*Frame) : 0.177
Stream size : 2.33 GiB (80%)
Title : x264, 1056x604, 23.98 fps, 2705 kbps, rip by Atropos
Writing library : x264 core 112 r1867 22bfd31
Encoding settings : cabac=1 / ref=10 / deblock=1:-2:-2 / analyse=0x3:0x133 / me=umh / subme=10 / psy=1 / psy_rd=1.00:0.15 / mixed_ref=1 / me_range=32 / chroma_me=1 / trellis=2 / 8x8dct=1 / cqm=0 / deadzone=21,11 / fast_pskip=0 / chroma_qp_offset=-3 / threads=6 / sliced_threads=0 / nr=0 / decimate=0 / interlaced=0 / constrained_intra=0 / bframes=9 / b_pyramid=2 / b_adapt=2 / b_bias=0 / direct=3 / weightb=1 / open_gop=0 / weightp=2 / keyint=250 / keyint_min=23 / scenecut=40 / intra_refresh=0 / rc_lookahead=50 / rc=2pass / mbtree=1 / bitrate=2705 / ratetol=1.0 / qcomp=0.60 / qpmin=0 / qpmax=51 / qpstep=4 / cplxblur=20.0 / qblur=0.5 / ip_ratio=1.40 / aq=2:0.80
Language : English
Default : Yes
Forced : No
Color range : Limited
Color primaries : BT.709
Transfer characteristics : BT.709
Matrix coefficients : BT.709
Audio #1
ID : 2
Format : AC-3
Format/Info : Audio Coding 3
Mode extension : CM (complete main)
Format settings, Endianness : Big
Codec ID : A_AC3
Duration : 2h 6mn
Bit rate mode : Constant
Bit rate : 192 Kbps
Channel(s) : 2 channels
Channel positions : Front: L R
Sampling rate : 48.0 KHz
Compression mode : Lossy
Stream size : 174 MiB (6%)
Title : AC-3, 48 kHz, 192 kbps, 2 ch - MVO
Language : Russian
Default : Yes
Forced : No
Audio #2
ID : 3
Format : AC-3
Format/Info : Audio Coding 3
Mode extension : CM (complete main)
Format settings, Endianness : Big
Codec ID : A_AC3
Duration : 2h 6mn
Bit rate mode : Constant
Bit rate : 384 Kbps
Channel(s) : 6 channels
Channel positions : Front: L C R, Side: L R, LFE
Sampling rate : 48.0 KHz
Compression mode : Lossy
Stream size : 348 MiB (12%)
Title : AC-3, 48 kHz, 384 kbps, 6 ch - Original
Language : English
Default : No
Forced : No
Text
ID : 4
Format : UTF-8
Codec ID : S_TEXT/UTF8
Codec ID/Info : UTF-8 Plain Text
Language : English
Default : No
Forced : No
Menu
00:00:00.000 : :Chapter01
00:01:55.032 : :Chapter02
00:04:16.506 : :Chapter03
00:05:55.480 : :Chapter04
00:10:44.602 : :Chapter05
00:17:15.243 : :Chapter06
00:19:11.525 : :Chapter07
00:22:12.498 : :Chapter08
00:25:51.300 : :Chapter09
00:29:47.995 : :Chapter10
00:34:45.041 : :Chapter11
00:37:51.269 : :Chapter12
00:41:59.892 : :Chapter13
00:47:56.457 : :Chapter14
00:50:37.326 : :Chapter15
00:52:27.186 : :Chapter16
00:55:18.732 : :Chapter17
00:57:20.270 : :Chapter18
01:00:25.288 : :Chapter19
01:02:39.631 : :Chapter20
01:06:21.603 : :Chapter21
01:11:52.600 : :Chapter22
01:14:42.895 : :Chapter23
01:18:27.578 : :Chapter24
01:19:58.210 : :Chapter25
01:23:11.028 : :Chapter26
01:26:45.158 : :Chapter27
01:29:35.495 : :Chapter28
01:31:30.819 : :Chapter29
01:37:08.781 : :Chapter30
01:41:01.305 : :Chapter31
01:49:49.374 : :Chapter32
01:53:33.473 : :Chapter33
01:57:36.424 : :Chapter34
02:01:09.053 : :Chapter35
02:04:30.797 : :Chapter36

Скриншот c названием фильма

Скриншоты

Создавать темы 20-Апр-2015 20:10

[Профиль]  [ЛС] 

lotto ®

Стаж: 7 лет 10 месяцев

Сообщений: 221

Симпатии: 409

Многим известен ремейк с Дензелом Вашингтоном.
Первоисточник лучше.

Создавать темы 20-Апр-2015 20:12

[Профиль]  [ЛС] 
Показать сообщения:    
Ответить на тему

Текущее время: 20-Ноя 08:43

Часовой пояс: UTC + 5



Вы не можете начинать темы
Вы не можете отвечать на сообщения
Вы не можете редактировать свои сообщения
Вы не можете удалять свои сообщения
Вы не можете голосовать в опросах
Вы не можете прикреплять файлы к сообщениям
Вы не можете скачивать файлы