Звуки тишины / Khamoshiyan (Каран Дарра / Karan Darra) [2015, Индия, Ужаы, мистика, триллер, детектив, WebRip] (DVO : DeadSno & den904)

Ответить на тему
 

Davron1402 ®

Стаж: 3 года 9 месяцев

Сообщений: 136

Симпатии: 122

Звуки тишины / Khamoshiyan- Страна: Индия
Жанр: Ужаы, мистика, триллер, детектив
Год выпуска: 2015
Продолжительность: 01:58:12
Перевод: Любительский (двухголосый закадровый) Доп. инфо о переводе DeadSno & den904
Cубтитры: нет
Режиссер: Каран Дарра / Karan Darra
В ролях: Гурмит Чхоудхари, Али Фазал, Сапна Бабби, Винод Рават, Дебина Боннерджи
Описание: Мира - одинокая девушка, живущая совсем одна в огромном отеле. Именно туда, в поисках вдохновения, приезжает писатель романов Кабир, человек оставивший позади себя свою неудачную и неоконченную историю любви. Молодые люди сразу тянутся друг другу, потому что их объединяет одно. Молчание, которое съедает их изнутри и не даёт им полностью раскрыться друг перед другом. Но как говорится, все мы становимся жертвами собственных тайн. Что же кроется за таинственным молчанием Миры и какую тайну она скрывает?-Качество видео: WebRip
Формат видео: mp4 (MPEG-4)
Видео: AVC, 852 x 480 (16:9), 23.976 fps, 785 Kbps
Аудио: AAC, 44.1 KHz, 2 channels, 148 Kbps- 

MediaInfo

Расположение: D:\KINO\Khamoshiyan.2015.mp4
Имя файла: Khamoshiyan.2015.mp4
Формат файла: .mp4 (MPEG-4)
Размер файла: 792.45 MB
Длительность: 1h 58mn
Навигация по главам: Нет
Bitrate (все потоки): 937 Kbps
Тип битрейта (все потоки): Variable
Файл создан...: UTC 2015-04-20 15:28:54
...при помощи: Lavf51.12.1
Название: Khamoshiyan.2015
Тип потока: Видео
Длительность: 01:58:12
Кодек: AVC
Кодек/Профиль: [email protected]
Кодек/ID: avc1
Кодек/CABAC: No
Кодек/ReFrames: 1 frame
Размеры изображения: 852 x 480 (16:9)
Частота кадров: 23.976 fps
Размер потока: 663 MiB (84%)
Битрейт: 785 Kbps
Цветовое пространство: YUV
Тип развёртки: Progressive
Глубина: 8 bits
Тип потока: Звук #1
Длительность: 01:58:12.327
Кодек: AAC
Кодек/Профиль: LC
Кодек/ID: 40
Частота дискретизации: 44.1 KHz
Каналов: 2 channels
Битрейт: 148 Kbps
Битрейт/тип: Variable
Размер потока: 125 MiB (16%)
Метод сжатия: Lossy

Скриншоты




Создавать темы 20-Апр-2015 23:06

[Профиль]  [ЛС] 

Davron1402 ®

Стаж: 3 года 9 месяцев

Сообщений: 136

Симпатии: 122

Не кто не хочет на пишет комментарию или ужастики не кому не нравиться?

Создавать темы 24-Апр-2015 17:36

[Профиль]  [ЛС] 

EPMAK

Стаж: 2 года 6 месяцев

Сообщений: 255

Симпатии: 179

очень нравятся ужастики,за фильм спасибо обязательно посмотрю потом отпишусь

Создавать темы 27-Апр-2015 07:12

[Профиль]  [ЛС] 

EPMAK

Стаж: 2 года 6 месяцев

Сообщений: 255

Симпатии: 179

мне лично фильм понравился

Создавать темы 20-Май-2015 00:01

[Профиль]  [ЛС] 
Показать сообщения:    
Ответить на тему

Текущее время: 21-Окт 10:04

Часовой пояс: UTC + 5



Вы не можете начинать темы
Вы не можете отвечать на сообщения
Вы не можете редактировать свои сообщения
Вы не можете удалять свои сообщения
Вы не можете голосовать в опросах
Вы не можете прикреплять файлы к сообщениям
Вы не можете скачивать файлы