Мстители: Гримм / Avengers Grimm (Джереми Инман / Jeremy Inman) [2015 г., фантастика, фэнтези, боевик, приключения, WEB-DLRip-AVC]

Ответить на тему
 

KHRuchev ®

Стаж: 2 года 7 месяцев

Сообщений: 41

Симпатии: 110

Мстители: Гримм / Avengers Grimm-- Год выпуска: 2015
Страна: США
Жанр: фантастика, фэнтези, боевик, приключения
Продолжительность: 01:25:25
Перевод: Любительское (одноголосное) [datynet]--Режиссер: Джереми Инман--В ролях: Каспер Ван Дин, Лорен Паркинсон, Лу Ферриньо, Майлин Сарли, Райли Вандербилт, Кимо Леопольдо, Жюстин Херрон--Описание:«Сражение легендарных персонажей Братьев Гримм »
Когда Румпельштильцхен разрушает Волшебное зеркало и убегает в современный мир, четыре принцессы -Золушка, Спящая красавица, Белоснежка и Рапунцель - проникают на Землю вслед за ним. Хорошо обученные и наделены магическими способностями, эти девушки должны сразиться с Румпельштильцхеном и его армией рабов, прежде чем он поработит всех на Земле.--Качество: WEB-DLRip-AVC
Формат: MKV
Видео кодек: MPEG-4 AVC (MKV)
Аудио кодек: AC3
Видео: AVC, 1024x576, 2000 Kbps
Аудио: Russian: AC3, 192 kb/s (2 ch) / English: AC3, 384 kb/s (6 ch)

MI

General
Unique ID : 243926704909915947415811173359222615376 (0xB7829313E291E58E9CD33A3877B56D50)
Format : Matroska
Format version : Version 4 / Version 2
File size : 1.54 GiB
Duration : 1h 25mn
Overall bit rate : 2 577 Kbps
Movie name : Release Group CINEMANIA
Encoded date : UTC 2015-04-06 05:19:46
Writing application : mkvmerge v7.7.0 ('Six Voices') 64bit built on Feb 28 2015 23:39:33
Writing library : libebml v1.3.1 + libmatroska v1.4.2
DURATION : 01:22:36.082000000
NUMBER_OF_FRAMES : 1125
NUMBER_OF_BYTES : 43773
_STATISTICS_WRITING_APP : mkvmerge v7.7.0 ('Six Voices') 64bit built on Feb 28 2015 23:39:33
_STATISTICS_WRITING_DATE_UTC : 2015-04-06 05:19:46
_STATISTICS_TAGS : BPS DURATION NUMBER_OF_FRAMES NUMBER_OF_BYTES
Video
ID : 1
Format : AVC
Format/Info : Advanced Video Codec
Format profile : [email protected]
Format settings, CABAC : Yes
Format settings, ReFrames : 7 frames
Codec ID : V_MPEG4/ISO/AVC
Duration : 1h 25mn
Bit rate : 2 000 Kbps
Width : 1 024 pixels
Height : 576 pixels
Display aspect ratio : 16:9
Frame rate mode : Constant
Frame rate : 24.000 fps
Color space : YUV
Chroma subsampling : 4:2:0
Bit depth : 8 bits
Scan type : Progressive
Bits/(Pixel*Frame) : 0.141
Stream size : 1.16 GiB (76%)
Writing library : x264 core 128 r2216M 198a7ea
Encoding settings : cabac=1 / ref=8 / deblock=1:-3:-3 / analyse=0x3:0x133 / me=umh / subme=7 / psy=0 / mixed_ref=1 / me_range=24 / chroma_me=1 / trellis=0 / 8x8dct=1 / cqm=0 / deadzone=21,11 / fast_pskip=1 / chroma_qp_offset=-2 / threads=4 / lookahead_threads=1 / sliced_threads=0 / nr=0 / decimate=1 / interlaced=0 / bluray_compat=0 / constrained_intra=0 / bframes=6 / b_pyramid=1 / b_adapt=0 / b_bias=0 / direct=3 / weightb=1 / open_gop=0 / weightp=0 / keyint=240 / keyint_min=23 / scenecut=40 / intra_refresh=0 / rc_lookahead=40 / rc=2pass / mbtree=1 / bitrate=2000 / ratetol=1.0 / qcomp=0.60 / qpmin=0 / qpmax=69 / qpstep=6 / cplxblur=20.0 / qblur=0.5 / ip_ratio=1.40 / aq=1:1.00
Language : English
Default : Yes
Forced : No
DURATION : 01:25:25.417000000
NUMBER_OF_FRAMES : 123010
NUMBER_OF_BYTES : 1280527141
_STATISTICS_WRITING_APP : mkvmerge v7.7.0 ('Six Voices') 64bit built on Feb 28 2015 23:39:33
_STATISTICS_WRITING_DATE_UTC : 2015-04-06 05:19:46
_STATISTICS_TAGS : BPS DURATION NUMBER_OF_FRAMES NUMBER_OF_BYTES
Audio #1
ID : 2
Format : AC-3
Format/Info : Audio Coding 3
Mode extension : CM (complete main)
Format settings, Endianness : Big
Codec ID : A_AC3
Duration : 1h 25mn
Bit rate mode : Constant
Bit rate : 192 Kbps
Channel(s) : 2 channels
Channel positions : Front: L R
Sampling rate : 48.0 KHz
Bit depth : 16 bits
Compression mode : Lossy
Delay relative to video : 27ms
Stream size : 117 MiB (7%)
Language : Russian
Default : Yes
Forced : No
DURATION : 01:25:25.600000000
NUMBER_OF_FRAMES : 160175
NUMBER_OF_BYTES : 123014400
_STATISTICS_WRITING_APP : mkvmerge v7.7.0 ('Six Voices') 64bit built on Feb 28 2015 23:39:33
_STATISTICS_WRITING_DATE_UTC : 2015-04-06 05:19:46
_STATISTICS_TAGS : BPS DURATION NUMBER_OF_FRAMES NUMBER_OF_BYTES
Audio #2
ID : 3
Format : AC-3
Format/Info : Audio Coding 3
Mode extension : CM (complete main)
Format settings, Endianness : Big
Codec ID : A_AC3
Duration : 1h 25mn
Bit rate mode : Constant
Bit rate : 384 Kbps
Channel(s) : 6 channels
Channel positions : Front: L C R, Side: L R, LFE
Sampling rate : 48.0 KHz
Bit depth : 16 bits
Compression mode : Lossy
Delay relative to video : 27ms
Stream size : 235 MiB (15%)
Language : English
Default : No
Forced : No
DURATION : 01:25:25.600000000
NUMBER_OF_FRAMES : 160175
NUMBER_OF_BYTES : 246028800
_STATISTICS_WRITING_APP : mkvmerge v7.7.0 ('Six Voices') 64bit built on Feb 28 2015 23:39:33
_STATISTICS_WRITING_DATE_UTC : 2015-04-06 05:19:46
_STATISTICS_TAGS : BPS DURATION NUMBER_OF_FRAMES NUMBER_OF_BYTES
Text
ID : 4
Format : UTF-8
Codec ID : S_TEXT/UTF8
Codec ID/Info : UTF-8 Plain Text
Language : English
Default : No
Forced : No
Menu
00:00:00.000 : en:1
00:08:02.000 : en:2
00:14:30.000 : en:3
00:23:26.000 : en:4
00:30:34.000 : en:5
00:36:13.000 : en:6
00:44:18.000 : en:7
00:53:07.000 : en:8
01:00:50.000 : en:9
01:08:14.000 : en:10
01:16:11.000 : en:11
01:22:35.000 : en:12

Скриншоты



Создавать темы 20-Апр-2015 23:36

[Профиль]  [ЛС] 

Топик был перенесен из форума CamRip, DVDScr и т.п. в форум HD-AVC
Mixer City

Создавать темы 21-Апр-2015 13:13

 

Seven_Sky

Стаж: 6 лет 9 месяцев

Сообщений: 431

Симпатии: 43

Материал под тв3?

Создавать темы 21-Апр-2015 13:19

[Профиль]  [ЛС] 

Jahongir027

Стаж: 3 года 9 месяцев

Сообщений: 31

Симпатии: 10

где скорость

Создавать темы 25-Май-2015 21:41

[Профиль]  [ЛС] 
Показать сообщения:    
Ответить на тему

Текущее время: 21-Окт 11:57

Часовой пояс: UTC + 5



Вы не можете начинать темы
Вы не можете отвечать на сообщения
Вы не можете редактировать свои сообщения
Вы не можете удалять свои сообщения
Вы не можете голосовать в опросах
Вы не можете прикреплять файлы к сообщениям
Вы не можете скачивать файлы