Восхождение Юпитер / Jupiter Ascending (Энди Вачовски, Лана Вачовски) [2015, США, Великобритания, фантастика, боевик, приключения, WEB-DL 720p] Dub (iTunes)

Ответить на тему
 

lotto ®

Стаж: 7 лет 8 месяцев

Сообщений: 221

Симпатии: 409

Восхождение Юпитер / Jupiter Ascending
«Expand your universe»
-- Страна: США, Великобритания
Жанр: фантастика, боевик, приключения
Год выпуска: 2015
Продолжительность: 02:07:32
Перевод: Профессиональный (дублированный) iTunes
Cубтитры: нет--Режиссер: Энди Вачовски, Лана Вачовски
В ролях: Ченнинг Татум, Мила Кунис, Шон Бин, Эдди Редмэйн, Дуглас Бут, Таппенс Мидлтон, Никки Амука-Бёрд, Кристина Коул, Николас А. Ньюман, Рамон Тикарам--Описание: Юпитер Джонс родилась под ночным небом, и все знаки предсказывали, что девочке предстоят великие свершения. Юпитер выросла и каждый день видит во сне звезды, но просыпается в жесткой реальности, где она работает уборщицей и моет туалеты. Личная жизнь Юпитер тоже оставляет желать лучшего, пока девушка не встречает Кейна. Кейн, бывший военный охотник, прибывает на Землю, чтобы отыскать Юпитер и раскрыть девушке ее истинное предназначение. Благодаря своим генетическим особенностям Юпитер становится претенденткой невероятного наследия, способного изменить равновесие во Вселенной.-- --Качество видео: WEB-DL
Формат видео: MKV
Видео: H.264, 1280x530, 3941 kbps, 23.976 fps
Аудио: AC3, 48 KHz, 6 ch, 384 kbps (русский, дублированный)

MediaInfo

General
Unique ID : 254241233935561710836065091381567819248 (0xBF45149F268F8B0196425969BF9A0DF0)
Complete name : \Jupiter Ascending.2015.D.WEB-DL.720p.mkv
Format : Matroska
Format version : Version 2
File size : 3.93 GiB
Duration : 2h 7mn
Overall bit rate : 4 413 Kbps
Movie name : Jupiter Ascending
Encoded date : UTC 2015-04-21 02:50:26
Writing application : mkvmerge v7.6.0 ('Garden of Dreams') 32bit built on Feb 11 2015 00:18:47
Writing library : libebml v1.3.1 + libmatroska v1.4.2
Attachements : cover.jpg
Video
ID : 1
Format : AVC
Format/Info : Advanced Video Codec
Format profile : [email protected]
Format settings, CABAC : No
Format settings, ReFrames : 2 frames
Codec ID : V_MPEG4/ISO/AVC
Duration : 2h 7mn
Bit rate : 3 941 Kbps
Width : 1 280 pixels
Height : 530 pixels
Display aspect ratio : 2.40:1
Frame rate mode : Constant
Frame rate : 23.976 fps
Color space : YUV
Chroma subsampling : 4:2:0
Bit depth : 8 bits
Scan type : Progressive
Bits/(Pixel*Frame) : 0.242
Stream size : 3.51 GiB (89%)
Language : English
Default : Yes
Forced : No
Color range : Limited
Color primaries : BT.709
Transfer characteristics : BT.709
Matrix coefficients : BT.709
Audio
ID : 2
Format : AC-3
Format/Info : Audio Coding 3
Mode extension : CM (complete main)
Format settings, Endianness : Big
Codec ID : A_AC3
Duration : 2h 7mn
Bit rate mode : Constant
Bit rate : 384 Kbps
Channel(s) : 6 channels
Channel positions : Front: L C R, Side: L R, LFE
Sampling rate : 48.0 KHz
Compression mode : Lossy
Stream size : 350 MiB (9%)
Language : Russian
Default : Yes
Forced : No
Menu
00:00:00.000 : en:1
00:08:44.000 : en:2
00:19:31.000 : en:3
00:31:32.000 : en:4
00:41:42.000 : en:5
00:49:35.000 : en:6
00:58:29.000 : en:7
01:09:19.000 : en:8
01:19:07.000 : en:9
01:29:09.000 : en:10
01:36:08.000 : en:11
01:43:26.000 : en:12
01:52:58.000 : en:13
01:57:59.000 : en:14

Скриншот c названием фильма

Скриншоты

Создавать темы 21-Апр-2015 07:59

[Профиль]  [ЛС] 
Показать сообщения:    
Ответить на тему

Текущее время: 25-Сен 23:30

Часовой пояс: UTC + 5



Вы не можете начинать темы
Вы не можете отвечать на сообщения
Вы не можете редактировать свои сообщения
Вы не можете удалять свои сообщения
Вы не можете голосовать в опросах
Вы не можете прикреплять файлы к сообщениям
Вы не можете скачивать файлы