Патруль времени / Predestination (Майкл Спириг, Питер Спириг / Michael Spierig,Peter Spierig) [2014, Австралия, фантастика, боевик, триллер, драма, детектив, BDRip] (Dub : Лицензия) (Sub Eng + Original Eng)

Ответить на тему
 

ruwind ®

Стаж: 3 года 9 месяцев

Сообщений: 13

Симпатии: 16

Патруль времени / Predestination
Страна: Австралия
Жанр: фантастика, боевик, триллер, драма, детектив
Год выпуска: 2014
Продолжительность: 01:37:49
Перевод: Профессиональный (дублированный) Доп. инфо о переводе Лицензия
Cубтитры: английские
Оригинальная аудиодорожка: английский
Режиссер: Майкл Спириг, Питер Спириг / Michael Spierig ,Peter Spierig
В ролях: Итан Хоук, Сара Снук, Кристофер Кирби, Кристофер Соммерс, Куни Хасимото, Сара Эль-Яафи, Пол Модер, Грант Пиро, Кристофер Бануорс
Описание: Будущее. Учёные создали машину времени, и с этим изобретением мир вышел на новый виток цивилизации. Благодаря изобретению появилась возможность исправлять ошибки прошлого, чтобы сделать настоящее лучше. Также машина дала возможность предотвращать преступления до их реализации. Для этой цели были отобраны лучшие полицейские.
Главный герой — полицейский времени, который уже успел предотвратить огромное количество преступлений благодаря путешествиям сквозь время. Однако все его заслуги меркнут, потому что он неспособен остановить угрозу, намеревающуюся уничтожить Нью-Йорк.
Качество видео: BDRip
Формат видео: MKV
Видео: 1280x534 (2.40:1) at 23.976 fps, 3288 kbps avg, 0.201 bit/pixel
Аудио: 48 kHz; AC3 Dolby Digital; 3/2 (L,C,R,l,r) + LFE ch; 640 kbps avg
Формат субтитров: softsub (SRT)

MediaInfo

Format : Matroska
Format version : Version 2
File size : 2.75 GiB
Duration : 1h 37mn
Overall bit rate : 4 021 Kbps
Encoded date : UTC 2015-02-28 07:21:00
Writing application : mkvmerge v5.0.1 ('Es ist Sommer') built on Oct 23 2011 00:46:40
Writing library : libebml v1.2.2 + libmatroska v1.3.0
Cover : Yes
Video #1
ID : 1
Format : AVC
Format/Info : Advanced Video Codec
Format profile : [email protected]
Format settings, CABAC : Yes
Format settings, ReFrames : 9 frames
Codec ID : V_MPEG4/ISO/AVC
Duration : 1h 37mn
Bit rate : 3 301 Kbps
Width : 1 280 pixels
Height : 534 pixels
Display aspect ratio : 2.40:1
Frame rate mode : Constant
Frame rate : 23.976 fps
Color space : YUV
Chroma subsampling : 4:2:0
Bit depth : 8 bits
Scan type : Progressive
Bits/(Pixel*Frame) : 0.201
Stream size : 2.26 GiB (82%)
Writing library : x264 core 125 r2208 d9d2288
Encoding settings : cabac=1 / ref=9 / deblock=1:-3:-3 / analyse=0x3:0x133 / me=umh / subme=11 / psy=1 / psy_rd=1.00:0.00 / mixed_ref=1 / me_range=32 / chroma_me=1 / trellis=2 / 8x8dct=1 / cqm=0 / deadzone=21,11 / fast_pskip=0 / chroma_qp_offset=-2 / threads=12 / lookahead_threads=2 / sliced_threads=0 / nr=0 / decimate=1 / interlaced=0 / bluray_compat=0 / constrained_intra=0 / bframes=8 / b_pyramid=2 / b_adapt=2 / b_bias=0 / direct=1 / weightb=1 / open_gop=0 / weightp=2 / keyint=250 / keyint_min=23 / scenecut=40 / intra_refresh=0 / rc=crf / mbtree=0 / crf=17.5 / qcomp=0.60 / qpmin=0 / qpmax=69 / qpstep=4 / ip_ratio=1.10 / pb_ratio=1.10 / aq=1:1.00
Language : English
Default : Yes
Forced : No
Audio #2
ID : 2
Format : AC-3
Format/Info : Audio Coding 3
Mode extension : CM (complete main)
Format settings, Endianness : Big
Codec ID : A_AC3
Duration : 1h 37mn
Bit rate mode : Constant
Bit rate : 640 Kbps
Channel(s) : 6 channels
Channel positions : Front: L C R, Side: L R, LFE
Sampling rate : 48.0 KHz
Bit depth : 16 bits
Compression mode : Lossy
Stream size : 448 MiB (16%)
Language : Russian
Default : Yes
Forced : Yes

Скриншот c названием фильма

Скриншоты



Создавать темы 21-Апр-2015 17:11

[Профиль]  [ЛС] 

-OdilmaX-

Стаж: 2 года 7 месяцев

Сообщений: 425

Симпатии: 854

Спасибоооо !

Создавать темы 24-Апр-2015 20:55

[Профиль]  [ЛС] 
Показать сообщения:    
Ответить на тему

Текущее время: 18-Окт 14:31

Часовой пояс: UTC + 5



Вы не можете начинать темы
Вы не можете отвечать на сообщения
Вы не можете редактировать свои сообщения
Вы не можете удалять свои сообщения
Вы не можете голосовать в опросах
Вы не можете прикреплять файлы к сообщениям
Вы не можете скачивать файлы