Игра в доктора / Doktorspiele (Марко Петри) [2014, Комедия, DVDRip]

Ответить на тему
 

KHRuchev ®

Стаж: 2 года 8 месяцев

Сообщений: 41

Симпатии: 110

Игра в доктора / Doktorspiele-- Страна: Германия
Жанр: Комедия
Продолжительность: 01:35:36--Год выпуска: 2014
Перевод: Любительский одноголосый [PashaUp]
Cубтитры: нет
Режиссер: Марко Петри
В ролях: Александр Дж. Бек, Анна Бёгер, Зелма Луиза Косшам, Катрин-Марэн Эндерс, Элла-Мария Голлмер, Герд Кнебел, Оливер Кориттке, Иво Кортланд, Дэн Леннард Зебренц, Зоя Лёманн--Описание: Застенчивый Анди влюблен в девушку, которую зовут Катя. Но, к сожалению, она не ровно дышит к другому парню - Бобби. И после того как Анди видит Бобби в душе, он понимает, что его шансы ничтожно малы. Из фильмов для взрослых, которые он смотрел со своим приятелем Гарри, ему известно, что все решает размер. И еще не остыли воспоминания из детства, когда ему пришлось краснеть по поводу маленького размера. Однажды в гости приезжает виновница его неуверенности в себе - подружка по песочнице Лилли. Она опять ставит все с ног на голову. А когда Катя внезапно стала проявлять интерес к Анди, начинается полный хаос...--Качество видео: DVDRip
Формат: AVI
Видео кодек: XviD
Аудио кодек: AC-3
Видео: XviD; 720x304; 1714 Kbps; 23.976 fps;
Аудио: AC-3; 48.0 KHz; 384 Kbps; 6-ch;

MI

General
Format : AVI
Format/Info : Audio Video Interleave
File size : 1.41 GiB
Duration : 1h 35mn
Overall bit rate : 2 107 Kbps
Writing application : VirtualDubMod 1.5.10.2 (build 2540/release)
Writing library : VirtualDubMod build 2540/release
Video
ID : 0
Format : MPEG-4 Visual
Format profile : [email protected]
Format settings, BVOP : No
Format settings, QPel : No
Format settings, GMC : No warppoints
Format settings, Matrix : Default (H.263)
Codec ID : XVID
Codec ID/Hint : XviD
Duration : 1h 35mn
Bit rate : 1 714 Kbps
Width : 720 pixels
Height : 304 pixels
Display aspect ratio : 2.35:1
Frame rate : 23.976 fps
Color space : YUV
Chroma subsampling : 4:2:0
Bit depth : 8 bits
Scan type : Progressive
Compression mode : Lossy
Bits/(Pixel*Frame) : 0.327
Stream size : 1.14 GiB (81%)
Writing library : XviD 64
Audio
ID : 1
Format : AC-3
Format/Info : Audio Coding 3
Mode extension : CM (complete main)
Format settings, Endianness : Big
Codec ID : 2000
Duration : 1h 35mn
Bit rate mode : Constant
Bit rate : 384 Kbps
Channel(s) : 6 channels
Channel positions : Front: L C R, Side: L R, LFE
Sampling rate : 48.0 KHz
Bit depth : 16 bits
Compression mode : Lossy
Stream size : 263 MiB (18%)
Alignment : Split accross interleaves
Interleave, duration : 42 ms (1.00 video frame)
Interleave, preload duration : 500 ms

Скриншоты



Создавать темы 21-Апр-2015 23:51

[Профиль]  [ЛС] 

KHRuchev ®

Стаж: 2 года 8 месяцев

Сообщений: 41

Симпатии: 110

Фильм прикольный !
Присутсвует Эротические показы!

Создавать темы 24-Апр-2015 02:00

[Профиль]  [ЛС] 

Olim4ik

Стаж: 4 года 10 месяцев

Сообщений: 115

Симпатии: 10

Ну же раздавайте!

Создавать темы 03-Фев-2016 09:11

[Профиль]  [ЛС] 
Показать сообщения:    
Ответить на тему

Текущее время: 16-Дек 18:07

Часовой пояс: UTC + 5



Вы не можете начинать темы
Вы не можете отвечать на сообщения
Вы не можете редактировать свои сообщения
Вы не можете удалять свои сообщения
Вы не можете голосовать в опросах
Вы не можете прикреплять файлы к сообщениям
Вы не можете скачивать файлы