Бродяга / Ragamuffin (Дэвид Шульц) [2014, США, драма, биография, HDRip] (VO)

Ответить на тему
 

Егор ®

Стаж: 4 года 9 месяцев

Сообщений: 19

Симпатии: 13

Бродяга / Ragamuffin
Страна: США
Жанр: драма, биография
Год выпуска: 2014
Продолжительность: 02:20:37
Перевод: Одноголосый закадровый
Cубтитры: нет
Режиссер: Дэвид Шульц
В ролях: Дэвид Шульц, Майкл Кох, Вольфганг Бодисон, Джеймс Кайсон Ли, Митч МакВикер, Элизабет Робертс, Карсон Он, Мэл Фэйр, Бил Клем, Сэм Ховард
Описание: Фильм про Ричарда Маллинса, композитора, музыканта, исполнителя в жанре христианской музыки. Рич старался найти себя, обрести веру в Бога и сказать людям нечто важное своим творчеством. Ричард относился к социальным благам, как к разрушающему человека явлению, и хотя он заработал миллионы, бухгалтер по его просьбе выдавал ему ежемесячное пособие в размере среднего заработка — остальное он отдавал в церковь на пожертвования. Ричард Маллинс никогда не знал точную сумму, которую он заработал.
Качество видео: HDRip
Формат видео: AVI
Видео: Xvid 688x384 23.976fps 1766kbps [V: mpeg4 advanced simple profile, yuv420p, 688x384, 1766 kb/s]
Аудио: Dolby AC3 48000Hz 6ch 448kbps [A: ac3, 48000 Hz, 5.1, 448 kb/s]

MediaInfo

General
Complete name : D:\Фильмы\Закачки\Ragamuffin_2014_HDRip_[individualist-scarabey].avi
Format : AVI
Format/Info : Audio Video Interleave
Format profile : OpenDML
File size : 2.18 GiB
Duration : 2h 20mn
Overall bit rate : 2 215 Kbps
Writing application : VirtualDubModRus 1.5.10.2 (build 2542/release)
Writing library : VirtualDubMod build 2542/release
Video
ID : 0
Format : MPEG-4 Visual
Format profile : Advanced [email protected]
Format settings, BVOP : 1
Format settings, QPel : No
Format settings, GMC : No warppoints
Format settings, Matrix : Custom
Codec ID : XVID
Codec ID/Hint : XviD
Duration : 2h 20mn
Bit rate : 1 766 Kbps
Width : 688 pixels
Height : 384 pixels
Display aspect ratio : 16:9
Frame rate : 23.976 fps
Color space : YUV
Chroma subsampling : 4:2:0
Bit depth : 8 bits
Scan type : Progressive
Compression mode : Lossy
Bits/(Pixel*Frame) : 0.279
Stream size : 1.73 GiB (80%)
Writing library : XviD 1.2.1 (UTC 2008-12-04)
Audio
ID : 1
Format : AC-3
Format/Info : Audio Coding 3
Mode extension : CM (complete main)
Format settings, Endianness : Big
Codec ID : 2000
Duration : 2h 17mn
Bit rate mode : Constant
Bit rate : 448 Kbps
Channel(s) : 6 channels
Channel positions : Front: L C R, Side: L R, LFE
Sampling rate : 48.0 KHz
Bit depth : 16 bits
Compression mode : Lossy
Stream size : 440 MiB (20%)
Alignment : Split accross interleaves
Interleave, duration : 43 ms (1.02 video frame)
Interleave, preload duration : 500 ms

Скриншот c названием фильма

Скриншоты




Создавать темы 22-Апр-2015 13:08

[Профиль]  [ЛС] 

Егор ®

Стаж: 4 года 9 месяцев

Сообщений: 19

Симпатии: 13

Проверьте пожалуйста... прочитал правила и вроди фильм ничего не нарушает...

Создавать темы 22-Апр-2015 13:10

[Профиль]  [ЛС] 
Показать сообщения:    
Ответить на тему

Текущее время: 24-Окт 01:47

Часовой пояс: UTC + 5



Вы не можете начинать темы
Вы не можете отвечать на сообщения
Вы не можете редактировать свои сообщения
Вы не можете удалять свои сообщения
Вы не можете голосовать в опросах
Вы не можете прикреплять файлы к сообщениям
Вы не можете скачивать файлы