Тени исчезают в полдень (1-7 серии из 7) (Владимир Краснопольский, Валерий Усков) [1971, Киноповесть, DVDRip]

Ответить на тему
 

фазилов ®

Стаж: 3 года 10 месяцев

Сообщений: 310

Симпатии: 344

Тени исчезают в полдень (1-7 серии из 7)
Жанр: Киноповесть
Год выпуска: 1971
Продолжительность: 08:08:38 (01:18:32 + 01:11:29 + 01:09:01 + 01:13:34 + 01:03:19 + 01:08:55 + 01:03:48)
Режиссёры: Владимир Краснопольский,
Валерий Усков

В ролях: Пётр Вельяминов, Нина Русланова, Сергей Яковлев, Александра Завьялова, Борис Новиков, Валерий Гатаев, Элеонора Шашкова, Лев Поляков, Галина Польских, Геннадий Корольков, Ольга Науменко, Анатолий Шаляпин, Евгений Шутов, Иван Рыжов, Анатолий Соловьев, Людмила Давыдова (Шляхтур), Юрий Орлов, Валерий Малышев, Валентина Владимирова, Роман Филиппов, Сергей Полежаев, Галина Логинова, Ирина Борисова, Владимир Самойлов, Петр Должанов, Борис Чинкин, Александра Данилова, Валентина Ананьина, Клавдия Козленкова, Лариса Воронова, Василий Свистунов, Николай Лиров, Клавдия Хабарова, Тамара Логинова
Описание: В сериале «Тени исчезают в полдень» нам рассказывают историю, которая была, как бы отражением судьбы России. Действия в этом сериале разворачиваются в небольшой, затерянной в таёжной глуши деревушки Зелёный Дол. В этой истории, показывается жизнь простого народа, начиная от разгрома банды белогвардейцев Колчака, борьбы с непримиримым кулачеством до первых тракторов. От проведения первых выборов в Совет народных депутатов, до тех дней, когда началась Великая война, и зеленодольцы отправились на фронт. О тех трудовых подвигах женщин, которые работали в тылу, до долгожданного Дня Победы, и первого выращенного послевоенного хлеба.

Доп. информация: Киностудия «Мосфильм» по заказу Гостелерадио СССР
Качество видео: DVDRip
Формат видео: AVI
Видео: 640x480 (1.33:1), 25 fps, DivX Codec 5.x or 6.x ~1234 kbps avg, 0.16 bit/pixel
Аудио: Русский, 48 kHz, MPEG Layer 3, 2 ch, ~128.00 kbps avg

MediaInfo

General
Complete name : D:\Мои релизы\Тени исчезают в полдень\1 серия.avi
Format : AVI
Format/Info : Audio Video Interleave
File size : 625 MiB
Duration : 1h 18mn
Overall bit rate : 1 113 Kbps
Writing application : VirtualDubMod 1.5.4.1 (build 2178/release)
Writing library : VirtualDubMod build 2178/release
Video
ID : 0
Format : MPEG-4 Visual
Format settings, BVOP : 1
Format settings, QPel : No
Format settings, GMC : No warppoints
Format settings, Matrix : Default (H.263)
Muxing mode : Packed bitstream
Codec ID : DX50
Codec ID/Hint : DivX 5
Duration : 1h 18mn
Bit rate : 977 Kbps
Width : 640 pixels
Height : 480 pixels
Display aspect ratio : 4:3
Frame rate : 25.000 fps
Color space : YUV
Chroma subsampling : 4:2:0
Bit depth : 8 bits
Scan type : Progressive
Compression mode : Lossy
Bits/(Pixel*Frame) : 0.127
Stream size : 549 MiB (88%)
Writing library : DivX 6.8.3-6.8.4 (UTC 2008-06-07)
Audio
ID : 1
Format : MPEG Audio
Format version : Version 1
Format profile : Layer 3
Mode : Joint stereo
Mode extension : MS Stereo
Codec ID : 55
Codec ID/Hint : MP3
Duration : 1h 18mn
Bit rate mode : Constant
Bit rate : 128 Kbps
Channel(s) : 2 channels
Sampling rate : 48.0 KHz
Compression mode : Lossy
Stream size : 71.9 MiB (12%)
Alignment : Aligned on interleaves
Interleave, duration : 80 ms (2.00 video frames)
Interleave, preload duration : 504 ms
Writing library : LAME3.97
Encoding settings : -m j -V 4 -q 2 -lowpass 17 -b 128

Скриншот c названием фильма

Скриншоты



Последний раз редактировалось: фазилов (2015-04-22 18:27), всего редактировалось 8 раз(а)

Создавать темы 22-Апр-2015 14:56

[Профиль]  [ЛС] 

фазилов ®

Стаж: 3 года 10 месяцев

Сообщений: 310

Симпатии: 344

Качество для TV хорошее.

Создавать темы 22-Апр-2015 15:37

[Профиль]  [ЛС] 

фазилов ®

Стаж: 3 года 10 месяцев

Сообщений: 310

Симпатии: 344

Для любителей Кинематографа СССР- привезут отличную копию "ВЕЧНЫЙ ЗОВ" нАЙДЁТСЯ 5 личеров -размещу. Оставляйте комментарии

Создавать темы 01-Май-2015 19:40

[Профиль]  [ЛС] 

shuh2004

Стаж: 6 лет

Сообщений: 41

Симпатии: 8

934267Для любителей Кинематографа СССР- привезут отличную копию "ВЕЧНЫЙ ЗОВ" нАЙДЁТСЯ 5 личеров -размещу. Оставляйте комментарии
давайте

Создавать темы 03-Май-2015 17:35

[Профиль]  [ЛС] 

фазилов ®

Стаж: 3 года 10 месяцев

Сообщений: 310

Симпатии: 344

shuh2004, Оформил релиз "Вечный зов". Качайте. aa

Создавать темы 15-Май-2015 11:27

[Профиль]  [ЛС] 
Показать сообщения:    
Ответить на тему

Текущее время: 16-Дек 08:35

Часовой пояс: UTC + 5



Вы не можете начинать темы
Вы не можете отвечать на сообщения
Вы не можете редактировать свои сообщения
Вы не можете удалять свои сообщения
Вы не можете голосовать в опросах
Вы не можете прикреплять файлы к сообщениям
Вы не можете скачивать файлы