Женщины против мужчин (Таир Мамедов) [2015, комедия, WEB-DLRip]

Ответить на тему
 

atgerkin ®

Стаж: 6 лет 10 месяцев

Сообщений: 247

Симпатии: 78

-Женщины против мужчин-Жанр: комедия
Год выпуска: 2015
Продолжительность: 01:23:24
Перевод: Оригинал-Режиссёр: Таир Мамедов-В ролях: Роман Юнусов, Александр Головин, Денис Косяков, Мария Кравченко, Настасья Самбурская, Наталья Рудова, Таир Мамедов, Олег Верещагин, Карен Манташян, Александр Шаляпин-Описание: Школьная любовь трех замечательных пар заканчивается тремя прекрасными свадьбами и сумасшедшим свадебным путешествием на экзотическую и горячую Кубу. Но первый же день долгожданного медового месяца окончился гигантской ссорой, переходящей в вечную войну мужчин против женщин. А на войне, как и в любви, правил нет! Пираньи в бассейн? Запросто! Пожар в номере? Не вопрос! Флирт на глазах у любимого мужа? Однозначно, да! И все это, конечно же, во имя любви!-Доп. информация:
 
Альтернативная раздача: Женщины против мужчин-Качество видео: WEB-DLRip
Формат видео: AVI-Видео: XviD, 2035 Кбит/с, 720x384
Аудио: AC3, 384 kb/s (2 ch)

MediaInfo

Общее
Полное имя : Zhenshyny.protyv.muzhsyn.2015.O.WEB-DLRip.1400Mb.avi
Формат : AVI
Формат/Информация : Audio Video Interleave
Размер файла : 1,37 Гбайт
Продолжительность : 1 ч. 20 м.
Общий поток : 2428 Кбит/сек
Программа кодирования : VirtualDubMod 1.5.10.3 | www.virtualdub-fr.org || (build 2550/release)
Библиотека кодирования : VirtualDubMod build 2550/release
Видео
Идентификатор : 0
Формат : MPEG-4 Visual
Профиль формата : Advanced [email protected]
Параметр BVOP формата : 2
Параметр QPel формата : Нет
Параметр GMC формата : Без точки перехода
Параметр матрицы формата : Default (MPEG)
Идентификатор кодека : XVID
Идентификатор кодека/Подсказка : XviD
Продолжительность : 1 ч. 20 м.
Битрейт : 2035 Кбит/сек
Ширина : 720 пикселей
Высота : 384 пикселя
Соотношение сторон : 1,85:1
Частота кадров : 25,000 кадров/сек
Цветовое пространство : YUV
Субдискретизация насыщенности : 4:2:0
Битовая глубина : 8 бит
Тип развёртки : Прогрессивная
Метод сжатия : С потерями
Бит/(Пиксели*Кадры) : 0.294
Размер потока : 1,15 Гбайт (84%)
Библиотека кодирования : XviD 1.2.1 (UTC 2008-12-04)
Аудио
Идентификатор : 1
Формат : AC-3
Формат/Информация : Audio Coding 3
Расширение режима : CM (complete main)
Параметр Endianness формата : Big
Идентификатор кодека : 2000
Продолжительность : 1 ч. 20 м.
Вид битрейта : Постоянный
Битрейт : 384 Кбит/сек
Каналы : 2 канала
Расположение каналов : Front: L R
Частота : 44,1 КГц
Битовая глубина : 16 бит
Метод сжатия : С потерями
Размер потока : 221 Мбайт (16%)
Выравнивание : Разделение по промежуткам
Продолжительность промежутка : 40 мс. (1,00 видеокадр)
Время предзагрузки промежутка : 500 мс.

Скриншот c названием фильма

Скриншоты:

Создавать темы 24-Апр-2015 17:47

[Профиль]  [ЛС] 
Показать сообщения:    
Ответить на тему

Текущее время: 24-Окт 07:24

Часовой пояс: UTC + 5



Вы не можете начинать темы
Вы не можете отвечать на сообщения
Вы не можете редактировать свои сообщения
Вы не можете удалять свои сообщения
Вы не можете голосовать в опросах
Вы не можете прикреплять файлы к сообщениям
Вы не можете скачивать файлы