Спасти зеленую планету! / Jigureul jikyeora! (Чан Чжун Хван) [2003, Южная Корея, фантастика, фэнтези, триллер, драма, комедия, DVDRip] MVO

Ответить на тему
 

lotto ®

Стаж: 7 лет 10 месяцев

Сообщений: 221

Симпатии: 409

Спасти зеленую планету! / Jigureul jikyeora!
«Perhaps you, are an alien?»
-- Страна: Южная Корея
Жанр: фантастика, фэнтези, триллер, драма, комедия
Год выпуска: 2003
Продолжительность: 01:58:52
Перевод: Любительский (многоголосый закадровый) Fi.Re & Ustas Alexis & Ульяна Громова
Cубтитры: нет--Режиссер: Чан Чжун Хван
В ролях: Син Ха Гюн, Юн-Сик Бек, Чжон-мин Хванг, Джа-ёнг Ли, Джу-хьён Ли, Чу-бон Джи, Донг-хьюн Ким, Рой-ха Ким, Сон Ли--Описание: Бён Гу — обычный корейский юноша. Он трогательно ухаживает за своей матерью, лежащей в коме последние 5 лет, и старается доискаться до причины ее болезни. В этих поисках он неожиданно решает, что раскрыл заговор инопланетян, направленный на истребление жизни на Земле.
За считанные часы до лунного затмения, после которого события примут необратимый характер, он должен встретиться с принцем Андромеды, добравшись до него через его земных агентов, во главе которых — зловещий Кан Ман-Шик, легко переносящий удар током в 300 вольт и другие невзгоды.-- --Качество видео: DVDRip
Формат видео: AVI
Видео: XviD, 1345 Кбит/с, 720x400, 23.976 fps
Аудио: MP3, 48 KHz 2 ch, 192 Кбит/с (русский, многоголосый)

MediaInfo

General
Complete name : \Jigureul jikyeora.2003.DVDRip.avi
Format : AVI
Format/Info : Audio Video Interleave
File size : 1.26 GiB
Duration : 1h 56mn
Overall bit rate : 1 547 Kbps
Movie name : Jigureul jikyeora!
Recorded date : 2003
Writing application : VirtualDubMod 1.5.10.3 | www.virtualdub-fr.org || (build 2550/release)
Writing library : VirtualDubMod build 2550/release
Video
ID : 0
Format : MPEG-4 Visual
Format profile : Advanced [email protected]
Format settings, BVOP : 2
Format settings, QPel : No
Format settings, GMC : No warppoints
Format settings, Matrix : Default (H.263)
Muxing mode : Packed bitstream
Codec ID : XVID
Codec ID/Hint : XviD
Duration : 1h 56mn
Bit rate : 1 345 Kbps
Width : 720 pixels
Height : 400 pixels
Display aspect ratio : 16:9
Frame rate : 23.976 fps
Color space : YUV
Chroma subsampling : 4:2:0
Bit depth : 8 bits
Scan type : Progressive
Compression mode : Lossy
Bits/(Pixel*Frame) : 0.195
Stream size : 1.10 GiB (87%)
Writing library : XviD 64
Audio
ID : 1
Format : MPEG Audio
Format version : Version 1
Format profile : Layer 3
Mode : Joint stereo
Mode extension : MS Stereo
Codec ID : 55
Codec ID/Hint : MP3
Duration : 1h 56mn
Bit rate mode : Constant
Bit rate : 192 Kbps
Channel(s) : 2 channels
Sampling rate : 48.0 KHz
Compression mode : Lossy
Stream size : 160 MiB (12%)
Alignment : Split accross interleaves
Interleave, duration : 42 ms (1.00 video frame)
Interleave, preload duratio : 500 ms
Writing library : LAME3.98r
Encoding settings : -m j -V 4 -q 0 -lowpass 18.6 -b 192

Скриншот c названием фильма

Скриншоты





Создавать темы 25-Апр-2015 10:27

[Профиль]  [ЛС] 

lotto ®

Стаж: 7 лет 10 месяцев

Сообщений: 221

Симпатии: 409

Фильм чумовой, вне каких-либо шаблонов.
Приз московского кинофестиваля - за лучшую режиссуру.

Создавать темы 25-Апр-2015 10:30

[Профиль]  [ЛС] 

FoxSage

Стаж: 4 года 4 месяца

Сообщений: 197

Симпатии: 19

lotto, Чумовой в смысле очень смешной?

Создавать темы 25-Апр-2015 15:00

[Профиль]  [ЛС] 

lotto ®

Стаж: 7 лет 10 месяцев

Сообщений: 221

Симпатии: 409

933086lotto, Чумовой в смысле очень смешной?
Там все, триллер- комедия-фантастика.
Сделано не шаблонно.

Создавать темы 25-Апр-2015 15:07

[Профиль]  [ЛС] 

FoxSage

Стаж: 4 года 4 месяца

Сообщений: 197

Симпатии: 19

Тогда Заценим

Создавать темы 25-Апр-2015 15:57

[Профиль]  [ЛС] 

FoxSage

Стаж: 4 года 4 месяца

Сообщений: 197

Симпатии: 19

lotto, Уважаю все твои релизы, кроме этого ))
Концовка меня вообще убила.
Дальше слов нет!

Создавать темы 03-Май-2015 18:59

[Профиль]  [ЛС] 

FoxSage

Стаж: 4 года 4 месяца

Сообщений: 197

Симпатии: 19

В Корее собачка человеченкой питается ))))

Создавать темы 03-Май-2015 19:50

[Профиль]  [ЛС] 

lotto ®

Стаж: 7 лет 10 месяцев

Сообщений: 221

Симпатии: 409

934505
Концовка меня вообще убила.
Дальше слов нет!
Так сказано было, что фильм не шаблонный))).

Создавать темы 05-Май-2015 20:58

[Профиль]  [ЛС] 

FoxSage

Стаж: 4 года 4 месяца

Сообщений: 197

Симпатии: 19

lotto, У тебя есть ещё Южно-Корейские комедии старые, вот как это https://tas-ix.net/viewtopic.php?t=100090
Если есть То залей плиз, я обожаю их безбашенные комедии. Можно и не фантастику.

Создавать темы 08-Май-2015 19:42

[Профиль]  [ЛС] 
Показать сообщения:    
Ответить на тему

Текущее время: 24-Ноя 10:55

Часовой пояс: UTC + 5



Вы не можете начинать темы
Вы не можете отвечать на сообщения
Вы не можете редактировать свои сообщения
Вы не можете удалять свои сообщения
Вы не можете голосовать в опросах
Вы не можете прикреплять файлы к сообщениям
Вы не можете скачивать файлы