Морской пехотинец 4 / The Marine 4: Moving Target (Уильям Кауфман / William Kaufman) [2015 г., боевик, триллер, BDRip 720p] [iTunes]

Ответить на тему
 

KHRuchev ®

Стаж: 2 года 8 месяцев

Сообщений: 41

Симпатии: 110

Морской пехотинец 4 / The Marine 4: Moving Target-- ИНФОРМАЦИЯ:
Год выпуска: 2015
Страна: США
Жанр: боевик, триллер
Продолжительность: 01:30:14
Перевод: Профессиональный (Многоголосый закадровый) [iTunes]
Режиссер: Уильям Кауфман--В РОЛЯХ:
Мелисса Роксбур, Майк Мизанин, Мэттью МакКоулл, Пол МакДжиллион, Даниэль Муане, Кертис Караваджо, Фрейзер Айтчесон, Джош Блэкер, Примо Аллон, Тодд Дженкинс--ОПИСАНИЕ:
В рамках частной практики Картер берется за новое задание: защиту «особо ценного груза» — прекрасной осведомительницы, пытающейся разоблачить коррумпированного поставщика оборонного комплекса. Вооруженные до зубов наемники идут по ее следам, готовые уничтожить каждого, кто встанет у них на пути — но безжалостный боец-профи не боится бросить им вызов.-- --Качество: BDRip 720p
Формат: MKV
Видео: x264, 1280x720, 5420 Kbps, 23.976 fps
Аудио #1: AC3, 6 ch, 384 Kbps, 48 kHz (Многоголосый закадровый) [iTunes]
Аудио #2: AC3, 6 ch, 384 Kbps, 48 kHz (Оригинал)

MI

Format                                   : Matroska
Format version                           : Version 4 / Version 2
File size                                : 3.90 GiB
Duration                                 : 1h 30mn
Overall bit rate                         : 6 194 Kbps
Movie name                               : The Marine 4: Moving Target 2015
Encoded date                             : UTC 2015-04-21 08:41:08
Writing application                      : mkvmerge v7.7.0 ('Six Voices') 32bit built on Feb 28 2015 23:23:00
Writing library                          : libebml v1.3.1 + libmatroska v1.4.2
DURATION                                 : 01:30:14.560000000
NUMBER_OF_FRAMES                         : 169205
NUMBER_OF_BYTES                          : 259898880
_STATISTICS_WRITING_APP                  : mkvmerge v7.7.0 ('Six Voices') 32bit built on Feb 28 2015 23:23:00
_STATISTICS_WRITING_DATE_UTC             : 2015-04-21 08:41:08
_STATISTICS_TAGS                         : BPS DURATION NUMBER_OF_FRAMES NUMBER_OF_BYTES
Video
ID                                       : 1
Format                                   : AVC
Format/Info                              : Advanced Video Codec
Format profile                           : H[email protected]
Format settings, CABAC                   : Yes
Format settings, ReFrames                : 5 frames
Codec ID                                 : V_MPEG4/ISO/AVC
Duration                                 : 1h 30mn
Bit rate                                 : 5 420 Kbps
Width                                    : 1 280 pixels
Height                                   : 720 pixels
Display aspect ratio                     : 16:9
Frame rate mode                          : Constant
Frame rate                               : 23.976 fps
Color space                              : YUV
Chroma subsampling                       : 4:2:0
Bit depth                                : 8 bits
Scan type                                : Progressive
Bits/(Pixel*Frame)                       : 0.245
Stream size                              : 3.34 GiB (86%)
Title                                    : The Marine 4: Moving Target 2015
Writing library                          : x264 core 144 r2525 40bb568
Encoding settings                        : cabac=1 / ref=5 / deblock=1:0:0 / analyse=0x3:0x133 / me=umh / subme=7
/ psy=1 / psy_rd=1.00:0.00 / mixed_ref=1 / me_range=16 / chroma_me=1 / trellis=1 / 8x8dct=1
/ cqm=0 / deadzone=21,11 / fast_pskip=0 / chroma_qp_offset=-2 / threads=18 / lookahead_threads=3
/ sliced_threads=0 / nr=0 / decimate=1 / interlaced=0 / bluray_compat=0 / constrained_intra=0
/ bframes=3 / b_pyramid=2 / b_adapt=1 / b_bias=0 / direct=1 / weightb=1 / open_gop=0 / weightp=2
/ keyint=250 / keyint_min=23 / scenecut=40 / intra_refresh=0 / rc_lookahead=40 / rc=2pass
/ mbtree=1 / bitrate=5420 / ratetol=1.0 / qcomp=0.60 / qpmin=0 / qpmax=69 / qpstep=4 / cplxblur=20.0
/ qblur=0.5 / ip_ratio=1.40 / aq=1:1.00
Language                                 : English
Default                                  : Yes
Forced                                   : No
DURATION                                 : 01:30:14.335000000
NUMBER_OF_FRAMES                         : 129814
NUMBER_OF_BYTES                          : 3667974108
_STATISTICS_WRITING_APP                  : mkvmerge v7.7.0 ('Six Voices') 32bit built on Feb 28 2015 23:23:00
_STATISTICS_WRITING_DATE_UTC             : 2015-04-21 08:41:08
_STATISTICS_TAGS                         : BPS DURATION NUMBER_OF_FRAMES NUMBER_OF_BYTES
Audio #1
ID                                       : 2
Format                                   : AC-3
Format/Info                              : Audio Coding 3
Mode extension                           : CM (complete main)
Format settings, Endianness              : Big
Codec ID                                 : A_AC3
Duration                                 : 1h 30mn
Bit rate mode                            : Constant
Bit rate                                 : 384 Kbps
Channel(s)                               : 6 channels
Channel positions                        : Front: L C R, Side: L R, LFE
Sampling rate                            : 48.0 KHz
Bit depth                                : 16 bits
Compression mode                         : Lossy
Stream size                              : 248 MiB (6%)
Language                                 : Russian
Default                                  : Yes
Forced                                   : No
Audio #2
ID                                       : 3
Format                                   : AC-3
Format/Info                              : Audio Coding 3
Mode extension                           : CM (complete main)
Format settings, Endianness              : Big
Codec ID                                 : A_AC3
Duration                                 : 1h 30mn
Bit rate mode                            : Constant
Bit rate                                 : 384 Kbps
Channel(s)                               : 6 channels
Channel positions                        : Front: L C R, Side: L R, LFE
Sampling rate                            : 48.0 KHz
Bit depth                                : 16 bits
Compression mode                         : Lossy
Stream size                              : 248 MiB (6%)
Language                                 : English
Default                                  : No
Forced                                   : No
Text
ID                                       : 4
Format                                   : VobSub
Muxing mode                              : zlib
Codec ID                                 : S_VOBSUB
Codec ID/Info                            : The same subtitle format used on DVDs
Language                                 : English
Default                                  : No
Forced                                   : No
Menu
00:00:00.000                             : en:00:00:00.000
00:03:47.686                             : en:00:03:47.686
00:04:58.715                             : en:00:04:58.715
00:06:52.579                             : en:00:06:52.579
00:08:44.190                             : en:00:08:44.190
00:11:18.803                             : en:00:11:18.803
00:13:23.177                             : en:00:13:23.177
00:17:29.006                             : en:00:17:29.006
00:21:05.681                             : en:00:21:05.681
00:24:33.347                             : en:00:24:33.347
00:28:10.898                             : en:00:28:10.898
00:33:49.194                             : en:00:33:49.194
00:36:52.293                             : en:00:36:52.293
00:39:56.394                             : en:00:39:56.394
00:42:34.552                             : en:00:42:34.552
00:47:35.853                             : en:00:47:35.853
00:49:37.933                             : en:00:49:37.933
00:55:11.225                             : en:00:55:11.225
01:00:06.812                             : en:01:00:06.812
01:04:37.373                             : en:01:04:37.373
01:07:33.549                             : en:01:07:33.549
01:11:34.665                             : en:01:11:34.665
01:14:19.538                             : en:01:14:19.538
01:15:35.030                             : en:01:15:35.030
01:17:04.829                             : en:01:17:04.829
01:18:40.841                             : en:01:18:40.841
01:20:43.464                             : en:01:20:43.464
01:24:12.256                             : en:01:24:12.256

Скриншоты

Будут позже

Создавать темы 25-Апр-2015 15:59

[Профиль]  [ЛС] 
Показать сообщения:    
Ответить на тему

Текущее время: 14-Дек 20:22

Часовой пояс: UTC + 5



Вы не можете начинать темы
Вы не можете отвечать на сообщения
Вы не можете редактировать свои сообщения
Вы не можете удалять свои сообщения
Вы не можете голосовать в опросах
Вы не можете прикреплять файлы к сообщениям
Вы не можете скачивать файлы