Шрек: Хэллоуин / Scared Shrekless (Гарри Трусдейл, Раман <~~>) [2010 г., мультфильм, HDTVRip]

Ответить на тему
 

mansurjon ®

Стаж: 7 лет 3 месяца

Сообщений: 103

Симпатии: 3

Шрек: Хэллоуин / Scared Shrekless Год выпуска: 2010
Страна: США, DreamWorks Animation / NBC
Жанр: Мультфильм
Продолжительность: 00:21:03
Перевод: Любительский (одноголосый)
Режиссер: Гарри Трусдейл, Раман <~~>
В ролях: Майк Майерс, Эдди Мёрфи, Кэмерон Диаз, Антонио Бандерас, Джули Эндрюс, Джон Хэмм, Джон Клиз, Крэйг Робинсон, Уолт Дорн, Джейн Линч

Шрек с друзьями решили устроить конкурс на самую страшную Хэллоуинскую историю. Но прежде чем выяснится кто же победил, им придется всю ночь пробыть в замке усопшего лорда Фаркуада
Качество: HDTVRip
Формат: AVI
Видео кодек: XviD
Аудио кодек: AC3
Видео: Xvid 720x416 23.98fps 1162kbps
Аудио: Dolby AC3 48000Hz 5ch 384kbps

MediaInfo

General
Complete name : Kerhs.Halloween.2010.L.HDTVRip.avi
Format : AVI
Format/Info : Audio Video Interleave
File size : 293 MiB
Duration : 21mn 3s
Overall bit rate : 1 944 Kbps
Writing application : VirtualDubMod 1.5.10.2 (build 2540/release)
Writing library : VirtualDubMod build 2540/release
Video
ID : 0
Format : MPEG-4 Visual
Format profile : Advanced [email protected]
Format settings, BVOP : Yes
Format settings, QPel : No
Format settings, GMC : No warppoints
Format settings, Matrix : Default (MPEG)
Codec ID : XVID
Codec ID/Hint : XviD
Duration : 21mn 3s
Bit rate : 1 162 Kbps
Width : 720 pixels
Height : 416 pixels
Display aspect ratio : 16:9
Frame rate : 23.976 fps
Resolution : 8 bits
Colorimetry : 4:2:0
Scan type : Progressive
Bits/(Pixel*Frame) : 0.162
Stream size : 175 MiB (60%)
Writing library : XviD 1.1.2 (UTC 2006-11-01)
Audio #1
ID : 1
Format : AC-3
Format/Info : Audio Coding 3
Codec ID : 2000
Duration : 21mn 3s
Bit rate mode : Constant
Bit rate : 384 Kbps
Channel(s) : 5 channels
Channel positions : Front: L C R, Surround: L R
Sampling rate : 48.0 KHz
Stream size : 57.9 MiB (20%)
Alignment : Split accross interleaves
Interleave, duration : 42 ms (1.00 video frame)
Interleave, preload duration : 500 ms
Audio #2
ID : 2
Format : AC-3
Format/Info : Audio Coding 3
Codec ID : 2000
Duration : 21mn 3s
Bit rate mode : Constant
Bit rate : 384 Kbps
Channel(s) : 6 channels
Channel positions : Front: L C R, Surround: L R, LFE
Sampling rate : 48.0 KHz
Stream size : 57.9 MiB (20%)
Alignment : Split accross interleaves
Interleave, duration : 42 ms (1.00 video frame)
Interleave, preload duration : 500 ms

Скриншоты




Создавать темы 08-Ноя-2010 01:17

[Профиль]  [ЛС] 

Asadbek3316

Стаж: 5 лет 7 месяцев

Сообщений: 3

man cho'ta tushunmayapman

Создавать темы 17-Янв-2012 12:43

[Профиль]  [ЛС] 

Jokero

Стаж: 6 лет 4 месяца

Сообщений: 176

Симпатии: 4

man cho'ta tushunmayapman
тупой что ли?? что тут непонятного??? Короткометражка Шрэка
Автору +1!
Спасибо

Создавать темы 21-Янв-2012 20:18

[Профиль]  [ЛС] 

Pendalf

Стаж: 6 лет 2 месяца

Сообщений: 416

Симпатии: 34

Asadbek3316,
2.2. Пользоваться в общении на форуме матерными выражениями и словами, в том числе и в завуалированной форме.
shakirov_rusya,
2.1. Оскорблять участников форума в любой форме (Запрещено проявление любой грубости, угроз, личных оскорблений и нецензурных высказываний, в том числе и в скрытой форме, как в отношении юридических, так и конкретных физических лиц). Участники должны соблюдать уважительную форму общения.
Обоим устные предупреждения на первый раз!

Создавать темы 21-Янв-2012 20:59

[Профиль]  [ЛС] 

Guff

Стаж: 5 лет 7 месяцев

Сообщений: 115

Симпатии: 164

прикольная фамилия режиссера..
Режиссер: Гарри Трусдейл, Раман <~~>
ag

Создавать темы 28-Янв-2012 23:31

[Профиль]  [ЛС] 
Показать сообщения:    
Ответить на тему

Текущее время: 23-Авг 20:29

Часовой пояс: UTC + 5



Вы не можете начинать темы
Вы не можете отвечать на сообщения
Вы не можете редактировать свои сообщения
Вы не можете удалять свои сообщения
Вы не можете голосовать в опросах
Вы не можете прикреплять файлы к сообщениям
Вы не можете скачивать файлы