Битва за Севастополь (Сергей Мокрицкий) [2015, Военный, ВОВ, драма, реальные события, DVDRip]

Ответить на тему
 

emilsky ®

Стаж: 7 лет 2 месяца

Сообщений: 2237

Симпатии: 610

Битва за Севастополь
Жанр: Военный, ВОВ, драма, реальные события
Год выпуска: 2015
Продолжительность: 01:57:00
Режиссёр: Сергей Мокрицкий
В ролях: Юлия Пересильд, Евгений Цыганов, Олег Васильков, Никита Тарасов, Джоан Блэкэм, Полина Пахомова, Владимир Лилицкий, Анатолий Кот, Нателла Абелева-Таганова, Валерий Гришко
Описание: Одна из немногих кинолент посвященных женщинам на войне. История известной женщины снайпера, принимавшей активное участие в обороне Севастополя. Уничтожив 309 фашистов, она покинула Севастополь, будучи серьезно раненой. После выздоровления оказалась в США с русской женской делегацией, ездила вместе с Элеонорой Рузвельт по Америке, убеждая открыть второй фронт.
Качество видео: DVDRip
Формат видео: AVI
Видео: XviD, 1312 Кбит/с, 720x304
Аудио: AC3, 6 ch, 448 Кбит/с

MediaInfo

D:\DVD5\B1tva.z4.Sev4st0pol.2015.O.DVDRip.1400MB.avi
General
Complete name : D:\DVD5\B1tva.z4.Sev4st0pol.2015.O.DVDRip.1400MB.avi
Format : AVI
Format/Info : Audio Video Interleave
File size : 1.46 GiB
Duration : 1h 57mn
Overall bit rate : 1 312 Kbps
Writing application : VirtualDubMod 1.5.10.2 (build 2540/release)
Writing library : VirtualDubMod build 2540/release
Video #0
ID : 0
Format : MPEG-4 Visual
Format profile : Advanced [email protected]
Format settings, BVOP : 2
Format settings, QPel : No
Format settings, GMC : No warppoints
Format settings, Matrix : Default (MPEG)
Codec ID : XVID
Codec ID/Hint : XviD
Duration : 1h 57mn
Bit rate : 1 247 Kbps
Width : 720 pixels
Height : 304 pixels
Display aspect ratio : 2.35:1
Frame rate : 25.000 fps
Color space : YUV
Chroma subsampling : 4:2:0
Bit depth : 8 bits
Scan type : Progressive
Compression mode : Lossy
Bits/(Pixel*Frame) : 0.228
Stream size : 1.03 GiB (70%)
Writing library : XviD 1.2.1 (UTC 2008-12-04)
Audio #1
ID : 1
Format : AC-3
Format/Info : Audio Coding 3
Mode extension : CM (complete main)
Format settings, Endianness : Big
Codec ID : 2000
Duration : 1h 57mn
Bit rate mode : Constant
Bit rate : 448 Kbps
Channel(s) : 6 channels
Channel positions : Front: L C R, Side: L R, LFE
Sampling rate : 48.0 KHz
Bit depth : 16 bits
Compression mode : Lossy
Stream size : 378 MiB (25%)
Alignment : Split accross interleaves

Скриншоты



Последний раз редактировалось: emilsky (2015-04-26 01:49), всего редактировалось 1 раз

Создавать темы 26-Апр-2015 01:43

[Профиль]  [ЛС] 

emilsky ®

Стаж: 7 лет 2 месяца

Сообщений: 2237

Симпатии: 610

Ко дню Великой Победы не мог пройти мимо!!!
Всем приятного просмотра!

Создавать темы 26-Апр-2015 01:44

[Профиль]  [ЛС] 

Sunnat1999

Стаж: 4 года 6 месяцев

Сообщений: 756

Симпатии: 416

Мой дед с первых дней был на войне. Бабушка с тремя детьми (и моя мама в том числе) была эвакуирована в гостеприимный Узбекистан, который стал для них второй Родиной. Мой дядя воевал. Муж моей тёти тоже воевал. В каждой семье есть память о тех кто защитил для нас мир.
Помню, чту, горжусь!
Поздравляю всех с 70 летием ПОБЕДЫ!
emilsky, помогу с раздачей.

Создавать темы 26-Апр-2015 05:38

[Профиль]  [ЛС] 

Sunnat1999

Стаж: 4 года 6 месяцев

Сообщений: 756

Симпатии: 416

Краткое описание: Любовь под нескончаемым огнем противника, дружба с Элеонорой Рузвельт, выступление на конференции, повлиявшее на исход Второй мировой войны, желание жить и страх потерять любимого человека — справится ли со всем этим хрупкая женщина? Это реальная история Людмилы Павличенко — легендарной женщины-снайпера. Солдаты шли в бой с ее именем на устах, а враги устроили на нее охоту. На поле битвы она видела смерть и страдания, но самым серьезным испытанием для нее стала любовь, которую у нее могла забрать война…

Создавать темы 26-Апр-2015 05:55

[Профиль]  [ЛС] 

kat222000

Стаж: 6 лет 5 месяцев

Сообщений: 608

Симпатии: 1055

Полина Гагарина - Кукушка (OST Битва за Севастополь)

Создавать темы 26-Апр-2015 13:31

[Профиль]  [ЛС] 

Olga1368

Стаж: 5 лет 7 месяцев

Сообщений: 72

Симпатии: 12

Спасибо так его хотела посмотреть....

Создавать темы 26-Апр-2015 15:21

[Профиль]  [ЛС] 
Показать сообщения:    
Ответить на тему

Текущее время: 23-Сен 05:14

Часовой пояс: UTC + 5



Вы не можете начинать темы
Вы не можете отвечать на сообщения
Вы не можете редактировать свои сообщения
Вы не можете удалять свои сообщения
Вы не можете голосовать в опросах
Вы не можете прикреплять файлы к сообщениям
Вы не можете скачивать файлы