Полина Гагарина - Кукушка (OST Битва за Севастополь) (2015) WEB-DL 720p

Ответить на тему
 

kat222000 ®

Стаж: 6 лет 8 месяцев

Сообщений: 608

Симпатии: 1055

-Полина Гагарина - Кукушка (OST Битва за Севастополь)-Год выпуска: 2015
Страна: Россия
Жанр: Pop
Продолжительность: 00:03:21-Качество: WEB-DLRip (720p)
Формат: MP4
Видео кодек: AVC
Аудио кодек: AAC
Видео: AVC, 1280x720, 25fps, 2027kbps
Аудио: AAC, 44100Hz, 2 ch, 192kbps

MI

General
Format : MPEG-4
Format profile : Base Media / Version 2
Codec ID : mp42
File size : 53.3 MiB
Duration : 3mn 21s
Overall bit rate mode : Variable
Overall bit rate : 2 222 Kbps
Encoded date : UTC 2015-04-20 08:22:35
Tagged date : UTC 2015-04-20 08:22:35
gsst : 0
gstd : 201176
gssd : B0AFCE84DHH1430032796965985
gshh : r17---sn-aiglln6y.googlevideo.com
Video
ID : 1
Format : AVC
Format/Info : Advanced Video Codec
Format profile : [email protected]
Format settings, CABAC : Yes
Format settings, ReFrames : 1 frame
Codec ID : avc1
Codec ID/Info : Advanced Video Coding
Duration : 3mn 21s
Bit rate : 2 028 Kbps
Maximum bit rate : 8 185 Kbps
Width : 1 280 pixels
Height : 720 pixels
Display aspect ratio : 16:9
Frame rate mode : Constant
Frame rate : 25.000 fps
Color space : YUV
Chroma subsampling : 4:2:0
Bit depth : 8 bits
Scan type : Progressive
Bits/(Pixel*Frame) : 0.088
Stream size : 48.6 MiB (91%)
Encoded date : UTC 1970-01-01 00:00:00
Tagged date : UTC 2015-04-20 08:22:38
Audio
ID : 2
Format : AAC
Format/Info : Advanced Audio Codec
Format profile : LC
Codec ID : 40
Duration : 3mn 21s
Bit rate mode : Variable
Bit rate : 192 Kbps
Maximum bit rate : 201 Kbps
Channel(s) : 2 channels
Channel positions : Front: L R
Sampling rate : 44.1 KHz
Compression mode : Lossy
Stream size : 4.60 MiB (9%)
Title : IsoMedia File Produced by Google, 5-11-2011
Language : English
Encoded date : UTC 2015-04-20 08:22:37
Tagged date : UTC 2015-04-20 08:22:38
-

Скриншоты



Создавать темы 26-Апр-2015 13:22

[Профиль]  [ЛС] 
Показать сообщения:    
Ответить на тему

Текущее время: 13-Дек 20:01

Часовой пояс: UTC + 5



Вы не можете начинать темы
Вы не можете отвечать на сообщения
Вы не можете редактировать свои сообщения
Вы не можете удалять свои сообщения
Вы не можете голосовать в опросах
Вы не можете прикреплять файлы к сообщениям
Вы не можете скачивать файлы