Вспоминая Титанов / Remember the Titans (Боаз Якин) [2000, США, драма, биография, спорт, BDRip-AVC] DVO

Ответить на тему
 

lotto ®

Стаж: 7 лет 9 месяцев

Сообщений: 221

Симпатии: 409

Вспоминая Титанов / Remember the Titans
«Before they could win, they had to become one»
-- Страна: США
Жанр: драма, биография, спорт
Год выпуска: 2000
Продолжительность: 01:53:27
Перевод: Профессиональный (двухголосый закадровый)
Cубтитры: нет--Режиссер: Боаз Якин
В ролях: Дензел Вашингтон, Уилл Пэттон, Вуд Харрис, Райан Херст, Дональд Фэйсон, Крэйг Кирквуд, Итан Сапли, Кип Парду, Хайден Панеттьери, Николь Ари Паркер--Описание: При виде этих могучих статных парней девушки падают в обморок, а их кавалеры от зависти проливают свое пиво. Это игроки в одну из самых жестких и динамичных спортивных игр мира — американский футбол.
Для них нет большей радости в жизни, кроме как с победным ревом «тачдаун!» впечатать мяч в зачетную зону соперника, оставив за спиной живописную композицию из сшибленных с ног вражеских защитников. Победа!
Но мало кто знает, как труден их путь к славе. Герой этого фильма, тренер Герман Бун — из тех, кто знает. Он пришел в школьную команду «Титаны» когда она совсем не заслуживала свое название.
Преодолевая сопротивление местного тренера Билла Йоста, Бун приступает к превращению банды лоботрясов в дружную команду.-- --Качество видео: BDRip-AVC
Формат видео: MKV
Видео: H.264, 1024x436, 2600 kbps, 23.976 fps
Аудио: AC3, 48 KHz, 2 ch, 256 kbps (русский, двухголосый)

MediaInfo

Unique ID : 189456204609326106741644291863299342422 (0x8E87F01115EA1D3CAEA9FCC4DC55C056)
Complete name : \Remember the Titans.2000.BDRip-AVC.mkv
Format : Matroska
Format version : Version 2
File size : 2.26 GiB
Duration : 1h 53mn
Overall bit rate : 2 856 Kbps
Movie name : Remember the Titans
Encoded date : UTC 2015-04-26 08:42:57
Writing application : mkvmerge v7.6.0 ('Garden of Dreams') 32bit built on Feb 11 2015 00:18:47
Writing library : libebml v1.3.1 + libmatroska v1.4.2
Attachements : cover.jpg
ARTIST : Дензел Вашингтон, Вуд Харрис, Райан Херст, Дональд Фэйсон, Крэйг Кирквуд, Итан Сапли, Кип Парду и др.
DIRECTOR : Боаз Якин
DATE_RELEASED : 2000
SUMMARY : Remember the Titans
GENRE : драма, биография, спорт
SYNOPSIS : При виде этих могучих статных парней девушки падают в обморок, а их кавалеры от зависти проливают свое пиво. Это игроки в одну из самых жестких и динамичных спортивных игр мира — американский футбол. / / Для них нет большей радости в жизни, кроме как с победным ревом «тачдаун!» впечатать мяч в зачетную зону соперника, оставив за спиной живописную композицию из сшибленных с ног вражеских защитников. Победа! / / Но мало кто знает, как труден их путь к славе. Герой этого фильма, тренер Герман Бун — из тех, кто знает. Он пришел в школьную команду «Титаны» когда она совсем не заслуживала свое название. / / Преодолевая сопротивление местного тренера Билла Йоста, Бун приступает к превращению банды лоботрясов в дружную команду. / / И аутсайдеры «Титаны» постепенно становятся уверенными в себе грозными игроками, готовыми биться за звание чемпионов штата…
Video
ID : 1
Format : AVC
Format/Info : Advanced Video Codec
Format profile : [email protected]
Format settings, CABAC : Yes
Format settings, ReFrames : 8 frames
Codec ID : V_MPEG4/ISO/AVC
Duration : 1h 53mn
Bit rate : 2 600 Kbps
Width : 1 024 pixels
Height : 436 pixels
Display aspect ratio : 2.35:1
Frame rate mode : Constant
Frame rate : 23.976 fps
Color space : YUV
Chroma subsampling : 4:2:0
Bit depth : 8 bits
Scan type : Progressive
Bits/(Pixel*Frame) : 0.243
Stream size : 2.02 GiB (89%)
Writing library : x264 core 116 r2074 2641b9e
Encoding settings : cabac=1 / ref=8 / deblock=1:-2:-2 / analyse=0x3:0x133 / me=umh / subme=11 / psy=1 / psy_rd=1.00:0.00 / mixed_ref=1 / me_range=48 / chroma_me=1 / trellis=2 / 8x8dct=1 / cqm=0 / deadzone=21,11 / fast_pskip=0 / chroma_qp_offset=-2 / threads=3 / sliced_threads=0 / nr=0 / decimate=1 / interlaced=0 / bluray_compat=0 / constrained_intra=0 / bframes=8 / b_pyramid=2 / b_adapt=2 / b_bias=0 / direct=3 / weightb=1 / open_gop=0 / weightp=2 / keyint=250 / keyint_min=23 / scenecut=40 / intra_refresh=0 / rc=2pass / mbtree=0 / bitrate=2600 / ratetol=1.0 / qcomp=0.60 / qpmin=10 / qpmax=51 / qpstep=4 / cplxblur=20.0 / qblur=0.5 / ip_ratio=1.40 / pb_ratio=1.30 / aq=2:1.00
Language : English
Default : No
Forced : No
Audio
ID : 2
Format : AC-3
Format/Info : Audio Coding 3
Mode extension : CM (complete main)
Format settings, Endianness : Big
Codec ID : A_AC3
Duration : 1h 53mn
Bit rate mode : Constant
Bit rate : 256 Kbps
Channel(s) : 2 channels
Channel positions : Front: L R
Sampling rate : 48.0 KHz
Compression mode : Lossy
Stream size : 208 MiB (9%)
Title : DVO 48 KHz 2 ch 256 kbps
Language : Russian
Default : Yes
Forced : No

Скриншот c названием фильма

Скриншоты

Создавать темы 26-Апр-2015 13:55

[Профиль]  [ЛС] 
Показать сообщения:    
Ответить на тему

Текущее время: 18-Окт 23:41

Часовой пояс: UTC + 5



Вы не можете начинать темы
Вы не можете отвечать на сообщения
Вы не можете редактировать свои сообщения
Вы не можете удалять свои сообщения
Вы не можете голосовать в опросах
Вы не можете прикреплять файлы к сообщениям
Вы не можете скачивать файлы