1915 / 1915 (Карин Ованнисян, Алек Мухибян) [2015, США, драма, WEB-DLRip] (DVO : Студия Пиратского Дубляжа)

Ответить на тему
 

kat222000 ®

Стаж: 6 лет 7 месяцев

Сообщений: 608

Симпатии: 1055

-1915 / 1915«Нельзя избавиться от прошлого»-Страна: США
Жанр: драма
Год выпуска: 2015
Продолжительность: 01:22:58
Перевод: Любительский (двухголосый закадровый) (Студия Пиратского Дубляжа)-Режиссер: Карин Ованнисян, Алек Мухибян-В ролях: Симон Абкарян, Анджела Сарафян, Сэмюэл Пейдж, Николай Кински, Джим Пиддок, Дебра Кристофферсон, Кристофер Клауси, Майлс Крэнфорд, Марк Форгет, Роберт Холлак-Описание: 2015 год. Режиссер старейшего театра Лос-Анджелеса ставит пьесу памяти жертв геноцида армянского народа — преступления, которое не было признано исполнителями и через столетие. Но постановка вызывает в обществе новые приступы ненависти и ксенофобии, а серия необъяснимых происшествий в театре повергает труппу в мистический ужас. Никто не знал, что магия спектакля — в тайне, которую скрывает жена режиссера, загадочная и прекрасная актриса Анжела…- -Премьера (мир): 17 апреля 2015
Премьера (РФ): 23 апреля 2015, «Парадиз»-Качество видео: WEB-DLRip
Формат видео: AVI
Видео кодек: XviD
Аудио кодек: AC3
Видео: Xvid, 720x384, 23.976fps, 1 947 Kbps
Аудио: Dolby AC3, 48000Hz, 6ch, 384kbps-

MediaInfo

General
Format : AVI
Format/Info : Audio Video Interleave
File size : 1.36 GiB
Duration : 1h 22mn
Overall bit rate : 2 341 Kbps
Video
ID : 0
Format : MPEG-4 Visual
Format profile : Advanced [email protected]
Format settings, BVOP : Yes
Format settings, QPel : No
Format settings, GMC : No warppoints
Format settings, Matrix : Default (MPEG)
Codec ID : XVID
Codec ID/Hint : XviD
Duration : 1h 22mn
Bit rate : 1 947 Kbps
Width : 720 pixels
Height : 384 pixels
Display aspect ratio : 1.85:1
Frame rate : 23.976 fps
Color space : YUV
Chroma subsampling : 4:2:0
Bit depth : 8 bits
Scan type : Progressive
Compression mode : Lossy
Bits/(Pixel*Frame) : 0.294
Stream size : 1.13 GiB (83%)
Writing library : XviD 73
Audio
ID : 1
Format : AC-3
Format/Info : Audio Coding 3
Mode extension : CM (complete main)
Format settings, Endianness : Big
Codec ID : 2000
Duration : 1h 22mn
Bit rate mode : Constant
Bit rate : 384 Kbps
Channel(s) : 6 channels
Channel positions : Front: L C R, Side: L R, LFE
Sampling rate : 48.0 KHz
Bit depth : 16 bits
Compression mode : Lossy
Stream size : 228 MiB (16%)
Alignment : Split accross interleaves
Interleave, duration : 42 ms (1.00 video frame)
Interleave, preload duration : 500 ms
-

Скриншоты



- - -
-


Последний раз редактировалось: kat222000 (2015-05-01 14:44), всего редактировалось 1 раз

Создавать темы 26-Апр-2015 19:29

[Профиль]  [ЛС] 

kat222000 ®

Стаж: 6 лет 7 месяцев

Сообщений: 608

Симпатии: 1055

Полина Гагарина - Кукушка (OST Битва за Севастополь)

Создавать темы 26-Апр-2015 19:30

[Профиль]  [ЛС] 

kat222000 ®

Стаж: 6 лет 7 месяцев

Сообщений: 608

Симпатии: 1055

В совместной Декларации от 24 мая 1915 года стран-союзниц (Великобритания, Франция и Россия) массовые убийства армян впервые в истории были признаны преступлением против человечности.

Создавать темы 26-Апр-2015 19:37

[Профиль]  [ЛС] 

рыжий

Стаж: 7 лет 6 месяцев

Сообщений: 169

Симпатии: 130

kat222000, перехэшируйте, пожалуйста, торрент. все личи зависли на 99.8%.

Создавать темы 29-Апр-2015 15:31

[Профиль]  [ЛС] 

kat222000 ®

Стаж: 6 лет 7 месяцев

Сообщений: 608

Симпатии: 1055

Обновите торрент....

Создавать темы 01-Май-2015 14:45

[Профиль]  [ЛС] 

LanigirO

Стаж: 4 года 8 месяцев

Сообщений: 49

Симпатии: 19

Что-то очень туго качает... третий день качаю... За это время качал отсюда минимум 5-7 киношек, а этот фильм не поддается(((

Создавать темы 07-Май-2015 22:54

[Профиль]  [ЛС] 
Показать сообщения:    
Ответить на тему

Текущее время: 22-Ноя 08:47

Часовой пояс: UTC + 5



Вы не можете начинать темы
Вы не можете отвечать на сообщения
Вы не можете редактировать свои сообщения
Вы не можете удалять свои сообщения
Вы не можете голосовать в опросах
Вы не можете прикреплять файлы к сообщениям
Вы не можете скачивать файлы