Свидетель / Witness (Питер Уир) [1985, США, Триллер, драма, мелодрама, криминал, DVDRip] (MVO)

Ответить на тему
 

Decadence ®

Стаж: 5 лет 2 месяца

Сообщений: 65

Симпатии: 32

Свидетель / Witness
Страна: США
Жанр: Триллер, драма, мелодрама, криминал
Год выпуска: 1985
Продолжительность: 01:46:42
Перевод: Профессиональный (многоголосый закадровый)
Cубтитры: нет
Режиссер: Питер Уир
В ролях: Харрисон Форд, Келли МакГиллис, Йозеф Зоммер, Лукас Хаас, Ян Рубес, Александр Годунов, Дэнни Гловер, Брент Дженнингс, Пэтти ЛюПон, Энгус МакИннес
Описание: Девятилетний мальчик становится свидетелем зверского убийства: прямо на его глазах в туалете филадельфийского вокзала два человека безжалостно зарезали молодого мужчину. Оказывается, убитый был тайным агентом отдела по борьбе с наркотиками. Теперь мальчик- единственный свидетель, который может помочь детективу Джону Буку найти преступников.
Лицо одного убийцы навсегда впечаталось в детскую память. И мальчик увидел его снова, когда его привезли для дачи показаний в местный полицейский участок — он увидел фото убийцы на доске почета полицейского управления. С этой минуты за маленьким свидетелем и его единственным защитником, инспектором Буком, начинается охота.
 
Качество видео: DVDRip
Формат видео: AVI
Видео: DivX, 720x400, 25.000 fps, 778 kbps
Аудио: MP3, 44.1 KHz, 2 channels, 128 kbps

MediaInfo

General
Complete name : Witness.avi
Format : AVI
Format/Info : Audio Video Interleave
File size : 701 MiB
Duration : 1h 46mn
Overall bit rate : 918 Kbps
Writing application : Nandub v1.0rc2
Writing library : Nandub build 1853/release
Video #0
ID : 0
Format : MPEG-4 Visual
Format settings, BVOP : Yes
Format settings, QPel : No
Format settings, GMC : No warppoints
Format settings, Matrix : Default (MPEG)
Codec ID : DIVX
Codec ID/Info : Project Mayo
Codec ID/Hint : DivX 4
Duration : 1h 46mn
Bit rate : 778 Kbps
Width : 720 pixels
Height : 400 pixels
Display aspect ratio : 16:9
Frame rate : 25.000 fps
Color space : YUV
Chroma subsampling : 4:2:0
Bit depth : 8 bits
Scan type : Progressive
Compression mode : Lossy
Bits/(Pixel*Frame) : 0.108
Stream size : 594 MiB (85%)
Audio #1
ID : 1
Format : MPEG Audio
Format version : Version 1
Format profile : Layer 3
Mode : Joint stereo
Mode extension : MS Stereo
Codec ID : 55
Codec ID/Hint : MP3
Duration : 1h 46mn
Bit rate mode : Constant
Bit rate : 128 Kbps
Channel(s) : 2 channels
Sampling rate : 44.1 KHz
Compression mode : Lossy
Stream size : 97.7 MiB (14%)
Alignment : Aligned on interleaves
Interleave, duration : 26 ms (0.65 video frame)
Interleave, preload duration : 496 ms

Скриншот c названием фильма

Скриншоты



Создавать темы 26-Апр-2015 22:10

[Профиль]  [ЛС] 

oqilkhon

Стаж: 5 лет 3 месяца

Сообщений: 15

Спасибо!

Создавать темы 27-Апр-2015 21:08

[Профиль]  [ЛС] 

Decadence ®

Стаж: 5 лет 2 месяца

Сообщений: 65

Симпатии: 32

933456Спасибо!
Пожалуйста!

Создавать темы 27-Апр-2015 21:35

[Профиль]  [ЛС] 
Показать сообщения:    
Ответить на тему

Текущее время: 18-Дек 08:26

Часовой пояс: UTC + 5



Вы не можете начинать темы
Вы не можете отвечать на сообщения
Вы не можете редактировать свои сообщения
Вы не можете удалять свои сообщения
Вы не можете голосовать в опросах
Вы не можете прикреплять файлы к сообщениям
Вы не можете скачивать файлы