Викинги / Vikings / Сезон 3 / Серии: 1-10 из 10 (Киаран Доннелли, Йохан Ренк, Кен Джиротти) [2015, Боевик, драма, военный, история, WEB-DL 720p]MVO (LostFilm) + MVO (NewStudio) + MVO (AlexFilm) + MVO (B&K) + Original

Ответить на тему
 

emilsky ®

Стаж: 7 лет 4 месяца

Сообщений: 2237

Симпатии: 610


Викинги / Vikings
3 сезон, 1 - 10 серии
Год выпуска: 2014
Страна: Ирландия, Канада
Жанр: боевик, драма, военный, история
Продолжительность: 1х ~45 мин
Перевод: профессиональный многоголосый закадровый (LostFilm)
Перевод: профессиональный многоголосый закадровый (NewStudio)
Перевод: профессиональный многоголосый закадровый (AlexFilm)
Перевод: профессиональный многоголосый закадровый (B&K)
Субтитры: нет
Режиссеры: Йохан Ренк, Киаран Доннелли, Кен Джиротти-В ролях: Трэвис Фиммел, Клайв Стэнден, Гэбриел Бирн, Кэтрин Уинник, Джессалин Гилсиг, Джордж Благден, Густаф Скарсгард, Торбьорн Харр, Владимир Кулих, Донал Лог, Айван Кэй, Мод Хирст, Эрик Хиггинс, Герард Маккарти, Юко Ахола, Эми Де Брюн, Сэм Смит, Билл Гибсон, Кевин Мюррэй-Описание: Сериал рассказывает об отряде викингов Рагнара. Он восстал, чтобы стать королём племён викингов. Норвежская легенда гласит, что он был прямым потомком Одина, бога войны и воинов.-
  • Над проектом работали:-Релиз:
    Озвучка: Студия "Kravec"
    Перевод: Mauz-Релиз:
    Перевод: weirdie
    Монтаж и сведение звука: Koss и Baggio
    Роли озвучивали:
  • Петр Иващенко (Гланц)
  • Константин Погодаев
  • Анна Тух-Релиз:
    Перевод: Ольга Галайда
    Монтаж и сведение звука: Сергей Мартынов
    Роли озвучивали:
  • Евгения Тихонова
  • Александр Воронов
  • Михаил Суслов
  • Александр Долгов
  • Александр Дасевич-Релиз:
    Перевод: Янина Галицкая
    Роли озвучивали:
  • Артемий Мирон
  • Сергей Корчак
  • Алексей Кузнецов
  • Елена Григорьева-Рип: emilsky- -Кодек: MPEG-4 AVC/H.264
    Качество: WEB-DL 720p
    Видео: AVC, 1280x718 (1.778), 23.976 fps, ~3933 kbps, 0.179 bit/pixel
    Звук:
    Аудио rus: AC-3, 48 KHz, 6 ch, 384 kbps | LostFilm
    Аудио rus: AC-3, 48 KHz, 6 ch, 384 kbps | NewStudio
    Аудио rus: AC-3, 48 KHz, 6 ch, 384 kbps | AlexFilm
    Аудио rus: MP3, 44,1 KHz, 2 ch, 128 kbps | Baibako
    Аудио eng: AC-3, 48 KHz, 6 ch, 384 kbps
    Субтитры: русские (notabenoid), английские

    График выхода серий

    позже

    Скриншоты





    MediaInfo

    e:\Сериалы\Викинги 720р\Vikings.S03E01.720p.WEB-DL.4xRus.Eng.mkv
    General
    Unique ID : 210939512102770989505380979677270929832 (0x9EB178E76DA6E6E3ADEAF92270C471A8)
    Complete name : e:\Сериалы\Викинги 720р\Vikings.S03E01.720p.WEB-DL.4xRus.Eng.mkv
    Format : Matroska
    Format version : Version 4 / Version 2
    File size : 1.80 GiB
    Duration : 45mn 10s
    Overall bit rate : 5 694 Kbps
    Encoded date : UTC 2015-03-11 13:29:16
    Writing application : mkvmerge v7.7.0 ('Six Voices') 32bit built on Feb 28 2015 23:23:00
    Writing library : libebml v1.3.1 + libmatroska v1.4.2
    _STATISTICS_WRITING_APP : mkvmerge v7.7.0 ('Six Voices') 32bit built on Feb 28 2015 23:23:00
    _STATISTICS_WRITING_DATE_UTC : 2015-03-11 13:29:16
    _STATISTICS_TAGS : BPS DURATION NUMBER_OF_FRAMES NUMBER_OF_BYTES
    DURATION : 00:45:10.021000000
    NUMBER_OF_FRAMES : 103743
    NUMBER_OF_BYTES : 43360340
    Video #1
    ID : 1
    Format : AVC
    Format/Info : Advanced Video Codec
    Format profile : [email protected]
    Format settings, CABAC : No
    Format settings, ReFrames : 2 frames
    Codec ID : V_MPEG4/ISO/AVC
    Duration : 45mn 10s
    Bit rate : 3 917 Kbps
    Width : 1 280 pixels
    Height : 718 pixels
    Display aspect ratio : 16:9
    Frame rate mode : Constant
    Frame rate : 23.976 fps
    Color space : YUV
    Chroma subsampling : 4:2:0
    Bit depth : 8 bits
    Scan type : Progressive
    Bits/(Pixel*Frame) : 0.178
    Stream size : 1.24 GiB (69%)
    Language : English
    Default : Yes
    Forced : No
    Color primaries : BT.709
    Transfer characteristics : BT.709
    Matrix coefficients : BT.709
    Audio #2
    ID : 2
    Format : AC-3
    Format/Info : Audio Coding 3
    Mode extension : CM (complete main)
    Format settings, Endianness : Big
    Codec ID : A_AC3
    Duration : 45mn 10s
    Bit rate mode : Constant
    Bit rate : 384 Kbps
    Channel(s) : 6 channels
    Channel positions : Front: L C R, Side: L R, LFE
    Sampling rate : 48.0 KHz
    Bit depth : 16 bits
    Compression mode : Lossy
    Stream size : 124 MiB (7%)
    Title : LostFilm 5.1
    Language : Russian
    Default : Yes
    Forced : No
    Audio #3
    ID : 3
    Format : AC-3
    Format/Info : Audio Coding 3
    Mode extension : CM (complete main)
    Format settings, Endianness : Big
    Codec ID : A_AC3
    Duration : 45mn 10s
    Bit rate mode : Constant
    Bit rate : 384 Kbps
    Channel(s) : 6 channels
    Channel positions : Front: L C R, Side: L R, LFE
    Sampling rate : 48.0 KHz
    Bit depth : 16 bits
    Compression mode : Lossy
    Stream size : 124 MiB (7%)
    Title : NewStudio 5.1
    Language : Russian
    Default : No
    Forced : No
    Audio #4
    ID : 4
    Format : AC-3
    Format/Info : Audio Coding 3
    Mode extension : CM (complete main)
    Format settings, Endianness : Big
    Codec ID : A_AC3
    Duration : 45mn 10s
    Bit rate mode : Constant
    Bit rate : 384 Kbps
    Channel(s) : 6 channels
    Channel positions : Front: L C R, Side: L R, LFE
    Sampling rate : 48.0 KHz
    Bit depth : 16 bits
    Compression mode : Lossy
    Stream size : 124 MiB (7%)
    Title : AlexFilm
    Language : Russian
    Default : No
    Forced : No
    Audio #5
    ID : 5
    Format : MPEG Audio
    Format version : Version 1
    Format profile : Layer 3
    Codec ID : A_MPEG/L3
    Codec ID/Hint : MP3
    Duration : 45mn 10s
    Bit rate mode : Constant
    Bit rate : 128 Kbps
    Channel(s) : 2 channels
    Sampling rate : 44.1 KHz
    Compression mode : Lossy
    Stream size : 41.4 MiB (2%)
    Title : Baibako
    Language : Russian
    Default : No
    Forced : No
    Audio #6
    ID : 6
    Format : AC-3
    Format/Info : Audio Coding 3
    Mode extension : CM (complete main)
    Format settings, Endianness : Big
    Codec ID : A_AC3
    Duration : 45mn 10s
    Bit rate mode : Constant
    Bit rate : 384 Kbps
    Channel(s) : 6 channels
    Channel positions : Front: L C R, Side: L R, LFE
    Sampling rate : 48.0 KHz
    Bit depth : 16 bits
    Compression mode : Lossy
    Stream size : 124 MiB (7%)
    Language : English
    Default : No
    Forced : No
    Text #7
    ID : 7
    Format : UTF-8
    Codec ID : S_TEXT/UTF8
    Codec ID/Info : UTF-8 Plain Text
    Title : notabenoid
    Language : Russian
    Default : No
    Forced : No
    Text #8
    ID : 8
    Format : UTF-8
    Codec ID : S_TEXT/UTF8
    Codec ID/Info : UTF-8 Plain Text
    Title : CC
    Language : English
    Default : No
    Forced : No
    1ый сезон качаем тут2ой сезон качаем тут


  • Последний раз редактировалось: emilsky (2015-06-05 21:16), всего редактировалось 2 раз(а)

    Создавать темы 27-Апр-2015 06:32

    [Профиль]  [ЛС] 

    Топик был перенесен из форума Сезон 2014-2015 в форум HD
    emilsky

    Создавать темы 30-Апр-2015 17:10

     

    fdjon

    Стаж: 2 года 8 месяцев

    Сообщений: 25

    Симпатии: 3

    Ваше класный сериал есть ли 4 сезон (выйдет ли ) ?

    Создавать темы 20-Дек-2015 12:05

    [Профиль]  [ЛС] 
    Показать сообщения:    
    Ответить на тему

    Текущее время: 22-Ноя 20:02

    Часовой пояс: UTC + 5



    Вы не можете начинать темы
    Вы не можете отвечать на сообщения
    Вы не можете редактировать свои сообщения
    Вы не можете удалять свои сообщения
    Вы не можете голосовать в опросах
    Вы не можете прикреплять файлы к сообщениям
    Вы не можете скачивать файлы