Бадлапур / Badlapur (Шрирам Рагхаван / Sriram Raghavan) [2015, Индия, Триллер, драма, криминал, Web.Rip] (DVO : DeadSno & den904)

Ответить на тему
 

Davron1402 ®

Стаж: 3 года 10 месяцев

Сообщений: 136

Симпатии: 122

Бадлапур / Badlapur- Страна: Индия
Жанр: Триллер, драма, криминал
Год выпуска: 2015
Продолжительность: 02:09:32
Перевод: Любительский (двухголосый закадровый) Доп. инфо о переводе DeadSno & den904
Cубтитры: нет
Режиссер: Шрирам Рагхаван / Sriram Raghavan
В ролях: Варун Дхаван, Ями Гаутам, Радхика Апте, Хума Куреши,Навазуддин Сиддикуи, Дивья Датта, Винай Патхак, Закир Хуссейн, Мурали Шарма, Кумунд Мишра
Описание: Рагхав жил спокойно со своей семьёй, пока в один из дней его жена с маленьким сыном не стали жертвами ограбления банка двумя злоумышленниками. Грабители берут в заложники семью Рагхава, угнав машину его жены Миши. Хладнокровно, один из подельников убивает их, а второй сбегает с награбленным добром. Потеряв смысл жизни, главный герой попадает в депрессию, и решает найти убийц своей семьи. Даже спустя 15 лет, его жажда мести ещё не остыла, и ради неё он готов на всё. Рагхав приезжает в Бадлапур, город мести, где начинает свою охоту на каждого, кто был причастен к ограблению.
-Качество видео: Web.Rip
Формат видео: mp4 (MPEG-4)
Видео: AVC, 852 x 480 (16:9), 23.976 fps, 772 Kbps
Аудио: AAC, 44.1 KHz, 2 channels, 151 Kbps- 

MediaInfo

Расположение: D:\KINO\Indiskie Kino\Badlapur.2015.mp4
Имя файла: Badlapur.2015.mp4
Формат файла: .mp4 (MPEG-4)
Размер файла: 859.04 MB
Длительность: 2h 9mn
Навигация по главам: Нет
Bitrate (все потоки): 927 Kbps
Тип битрейта (все потоки): Variable
Файл создан...: UTC 2015-04-24 17:59:45
...при помощи: Lavf51.12.1
Тип потока: Альбом
Тип потока: Видео
Длительность: 02:09:32
Кодек: AVC
Кодек/ID: avc1
Кодек/CABAC: No
Кодек/ReFrames: 1 frame
Размеры изображения: 852 x 480 (16:9)
Частота кадров: 23.976 fps
Размер потока: 715 MiB (83%)
Битрейт: 772 Kbps
Цветовое пространство: YUV
Тип развёртки: Progressive
Глубина: 8 bits
Тип потока: Звук #1
Длительность: 02:09:32.068
Кодек: AAC
Кодек/Профиль: LC
Кодек/ID: 40
Частота дискретизации: 44.1 KHz
Каналов: 2 channels
Битрейт: 151 Kbps
Битрейт/тип: Variable
Размер потока: 140 MiB (16%)
Метод сжатия: Lossy

Скриншоты




Создавать темы 27-Апр-2015 17:09

[Профиль]  [ЛС] 

Davron1402 ®

Стаж: 3 года 10 месяцев

Сообщений: 136

Симпатии: 122

Почему не проверит?

Создавать темы 28-Апр-2015 20:46

[Профиль]  [ЛС] 
Показать сообщения:    
Ответить на тему

Текущее время: 20-Ноя 21:55

Часовой пояс: UTC + 5



Вы не можете начинать темы
Вы не можете отвечать на сообщения
Вы не можете редактировать свои сообщения
Вы не можете удалять свои сообщения
Вы не можете голосовать в опросах
Вы не можете прикреплять файлы к сообщениям
Вы не можете скачивать файлы