Подсолнухи / I girasoli (Витторио Де Сика) [1970, Италия, Франция, СССР, драма, BDRip] DVO

Ответить на тему
 

lotto ®

Стаж: 7 лет 8 месяцев

Сообщений: 221

Симпатии: 409

Подсолнухи / I girasoli
«A woman born for love. A man born to love her. A timeless moment in a world gone mad»
-- Страна: Италия, Франция, СССР
Жанр: драма
Год выпуска: 1970
Продолжительность: 01:47:22
Перевод: Профессиональный (двухголосый закадровый)
Cубтитры: нет--Режиссер: Витторио Де Сика
В ролях: Софи Лорен, Марчелло Мастроянни, Людмила Савельева, Галина Андреева, Анна Карена, Джермано Лонго, Надя Середниченко, Глауко Онорато, Сильвано Транквилли, Мариза Траверси, Гунар Цилинский, Карло Понти мл., Пиппо Старнацца, Дино Перетти, Джорджо Бассо, Джанни Бортолотти, Умберто Ди Грация, Джулиано Джирарди, Олег Федоров, Надежда Чередниченко, Петр Колбасин--Описание: Роман двух темпераментных возлюбленных развивался столь стремительно, что уже после нескольких интимных встреч они решили пожениться, ведь молодожёну полагается отсрочка от призыва. Увы, короткий отпуск, наполненный страстью, пролетел незаметно, а хитроумные попытки «откосить» от армии привели к тому, что молодому супругу пришлось отправиться не в Африку, а на русский фронт, в снега и морозы бескрайней России. По окончании войны Антонио не вернулся в Италию — он «пропал без вести». Но Джованна не могла примириться с мыслью о смерти любимого, она верила, что он был ранен, потерял память и живет где-то в чужой стране. На последние деньги она отправляется на поиски мужа в далекую Россию… Там её ждало потрясающее открытие…-- --Качество видео: BDRip
Формат видео: AVI
Видео: XviD, 672x352, 1731 kbps, 23,976 fps
Аудио: AC3, 48 KHz, 2 ch, 192 kbps (русский, двухголосый)

MediaInfo

General
Complete name : \Podsolnuhi.1970.RUS.BDRip.XviD.AC3.-HQCLUB.avi
Format : AVI
Format/Info : Audio Video Interleave
File size : 1.45 GiB
Duration : 1h 47mn
Overall bit rate : 1 933 Kbps
Movie name : Подсолнухи / Sunflower / I girasoli (1970) BDRip
Director : kingsize87 (Blu-ray Remux)
Writing application : VirtualDubMod 1.5.10.2 (build 2542/release)
Copyright : HQCLUB (http://hqclub.net)
Comment : 16.07.2011
Video
ID : 0
Format : MPEG-4 Visual
Format profile : Advanced [email protected]
Format settings, BVOP : 1
Format settings, QPel : No
Format settings, GMC : No warppoints
Format settings, Matrix : Custom
Codec ID : XVID
Codec ID/Hint : XviD
Duration : 1h 47mn
Bit rate : 1 731 Kbps
Width : 672 pixels
Height : 352 pixels
Display aspect ratio : 1.909
Frame rate : 23.976 fps
Color space : YUV
Chroma subsampling : 4:2:0
Bit depth : 8 bits
Scan type : Progressive
Compression mode : Lossy
Bits/(Pixel*Frame) : 0.305
Stream size : 1.30 GiB (90%)
Writing library : XviD 62
Audio
ID : 1
Format : AC-3
Format/Info : Audio Coding 3
Mode extension : CM (complete main)
Format settings, Endianness : Big
Codec ID : 2000
Duration : 1h 47mn
Bit rate mode : Constant
Bit rate : 192 Kbps
Channel(s) : 2 channels
Channel positions : Front: L R
Sampling rate : 48.0 KHz
Compression mode : Lossy
Stream size : 147 MiB (10%)
Alignment : Split accross interleaves
Interleave, duration : 42 ms (1.00 video frame)
Interleave, preload duratio : 500 ms

Скриншот c названием фильма

Скриншоты





Создавать темы 27-Апр-2015 18:07

[Профиль]  [ЛС] 
Показать сообщения:    
Ответить на тему

Текущее время: 19-Сен 22:14

Часовой пояс: UTC + 5



Вы не можете начинать темы
Вы не можете отвечать на сообщения
Вы не можете редактировать свои сообщения
Вы не можете удалять свои сообщения
Вы не можете голосовать в опросах
Вы не можете прикреплять файлы к сообщениям
Вы не можете скачивать файлы