Сильмидо / Silmido (Кан У Сок) [2003, Южная Корея, боевик, драма, HDTVRip] VO (@PD)

Ответить на тему
 

lotto ®

Стаж: 7 лет 10 месяцев

Сообщений: 221

Симпатии: 409

Сильмидо / Silmido-- Страна: Южная Корея
Жанр: боевик, драма
Год выпуска: 2003
Продолжительность: 02:10:43
Перевод: Одноголосый закадровый @PD
Cубтитры: нет--Режиссер: Кан У Сок
В ролях: Ан Сон Ги, Соль Кён Гу, Им Вон Хи, Кан Сон Чжин, Хо Чжун Хо, Ли Чон Хон...--Описание: Сильмидо — это небольшой остров у западного побережья Южной Кореи. В 1968 году в течение нескольких месяцев там по приказу президента Пак Чон Хи готовили группу из трех десятков диверсантов, в задачу которых входило убийство Ким Ир Сена.
Данная операция должна была стать местью за рейд северокорейских диверсантов на президентский дворец в Сеуле. Северяне были остановлены буквально в нескольких сотнях метров от «Чхонвадэ», большинство из них удалось уничтожить, но некоторые, судя по всему, сумели вернуться обратно в КНДР.
Диверсионная группа, тренировавшаяся на Сильмидо, состояла в основном из заключенных, которым пообещали простить все их грехи, если они успешно выполнят сверхсекретное задание. Однако спустя некоторое время по неизвестным причинам операция была отменена.
Тогда несостоявшиеся диверсанты устроили бунт, перебили своих командиров, добрались до Инчхона, а оттуда, захватив автобус, направились в Сеул, надеясь встретиться с Пак Чон Хи и донести до него свои жалобы.-- --Качество видео: HDTVRip
Формат видео: AVI
Видео: XviD, 720 x 320, 1371 kbps, 23.976 fps
Аудио: AC3, 48 KHz, 2 ch, 224 kbps (русский, одноголосый)

MediaInfo

General
Complete name : \Silmido.2003.HDTVRip.avi
Format : AVI
Format/Info : Audio Video Interleave
File size : 1.46 GiB
Duration : 2h 10mn
Overall bit rate : 1 604 Kbps
Writing application : VirtualDubMod 1.5.10.2 (build 2540/release)
Writing library : VirtualDubMod build 2540/release
Video
ID : 0
Format : MPEG-4 Visual
Format profile : Advanced [email protected]
Format settings, BVOP : 1
Format settings, QPel : No
Format settings, GMC : No warppoints
Format settings, Matrix : Default (MPEG)
Codec ID : XVID
Codec ID/Hint : XviD
Duration : 2h 10mn
Bit rate : 1 371 Kbps
Width : 720 pixels
Height : 320 pixels
Display aspect ratio : 2.25:1
Frame rate : 23.976 fps
Color space : YUV
Chroma subsampling : 4:2:0
Bit depth : 8 bits
Scan type : Progressive
Compression mode : Lossy
Bits/(Pixel*Frame) : 0.248
Stream size : 1.25 GiB (85%)
Writing library : XviD 1.2.1 (UTC 2008-12-04)
Audio
ID : 1
Format : AC-3
Format/Info : Audio Coding 3
Mode extension : CM (complete main)
Format settings, Endianness : Big
Codec ID : 2000
Duration : 2h 10mn
Bit rate mode : Constant
Bit rate : 224 Kbps
Channel(s) : 2 channels
Channel positions : Front: L R
Sampling rate : 48.0 KHz
Compression mode : Lossy
Stream size : 209 MiB (14%)
Alignment : Aligned on interleaves
Interleave, duration : 42 ms (1.00 video frame)
Interleave, preload duratio : 512 ms

Скриншоты






Создавать темы 27-Апр-2015 18:29

[Профиль]  [ЛС] 

bekstudio

Стаж: 6 лет 6 месяцев

Сообщений: 28

Встанте в раздачу пожалуйста

Создавать темы 05-Май-2015 19:46

[Профиль]  [ЛС] 
Показать сообщения:    
Ответить на тему

Текущее время: 19-Ноя 12:01

Часовой пояс: UTC + 5



Вы не можете начинать темы
Вы не можете отвечать на сообщения
Вы не можете редактировать свои сообщения
Вы не можете удалять свои сообщения
Вы не можете голосовать в опросах
Вы не можете прикреплять файлы к сообщениям
Вы не можете скачивать файлы