Ночь страшного суда / Judgment Night (Стивен Хопкинс) [1993, США, Япония, Боевик, триллер, криминал, DVDRip] (MVO)

Ответить на тему
 

Decadence ®

Стаж: 5 лет

Сообщений: 65

Симпатии: 32

Ночь страшного суда / Judgment Night
Страна: США, Япония
Жанр: Боевик, триллер, криминал
Год выпуска: 1993
Продолжительность: 01:45:12
Перевод: Профессиональный (многоголосый закадровый)
Cубтитры: нет
Режиссер: Стивен Хопкинс
В ролях: Эмилио Эстевес, Кьюба Гудинг мл., Дэнис Лири, Стивен Дорфф, Джереми Пивен, Питер Грин, Эрик Шроди, Майкл Уайзмен, Майкл ДеЛоренцо, Релиуэс Уэбб
Описание: Началом этой истории была попытка объехать автомобильную пробку. Это вылилось в отчаянную борьбу за выживание.
 
Качество видео: DVDRip
Формат видео: AVI
Видео: XviD, 672x288, 25.000 fps, 852 kbps
Аудио: MP3, 48.0 KHz, 2 channels, 128 kbps

MediaInfo

General
Complete name : Judgment Night.avi
Format : AVI
Format/Info : Audio Video Interleave
File size : 745 MiB
Duration : 1h 45mn
Overall bit rate : 990 Kbps
Writing application : VirtualDubMod 1.5.10.3 | www.virtualdub-fr.org || (build 2550/release)
Writing library : VirtualDubMod build 2550/release
Video #0
ID : 0
Format : MPEG-4 Visual
Format profile : Advanced [email protected]
Format settings, BVOP : 2
Format settings, QPel : No
Format settings, GMC : No warppoints
Format settings, Matrix : Custom
Codec ID : XVID
Codec ID/Hint : XviD
Duration : 1h 45mn
Bit rate : 852 Kbps
Width : 672 pixels
Height : 288 pixels
Display aspect ratio : 2.35:1
Frame rate : 25.000 fps
Color space : YUV
Chroma subsampling : 4:2:0
Bit depth : 8 bits
Scan type : Progressive
Compression mode : Lossy
Bits/(Pixel*Frame) : 0.176
Stream size : 641 MiB (86%)
Writing library : XviD 73
Audio #1
ID : 1
Format : MPEG Audio
Format version : Version 1
Format profile : Layer 3
Codec ID : 55
Codec ID/Hint : MP3
Duration : 1h 45mn
Bit rate mode : Constant
Bit rate : 128 Kbps
Channel(s) : 2 channels
Sampling rate : 48.0 KHz
Compression mode : Lossy
Delay relative to video : 480ms
Stream size : 96.3 MiB (13%)
Alignment : Aligned on interleaves
Interleave, duration : 40 ms (1.00 video frame)
Interleave, preload duration : 504 ms
Writing library : LAME3.98r
Encoding settings : -m s -V 4 -q 2 -lowpass 17 -b 128

Скриншот c названием фильма

Скриншоты



Создавать темы 27-Апр-2015 21:18

[Профиль]  [ЛС] 
Показать сообщения:    
Ответить на тему

Текущее время: 25-Сен 16:45

Часовой пояс: UTC + 5



Вы не можете начинать темы
Вы не можете отвечать на сообщения
Вы не можете редактировать свои сообщения
Вы не можете удалять свои сообщения
Вы не можете голосовать в опросах
Вы не можете прикреплять файлы к сообщениям
Вы не можете скачивать файлы