Код убийцы / Code of a Killer / мини-сериал / Сезон 1 / Серия 1-2 (2) [2015, драма, WEB-DLRip] MVO (AlexFilm)

Ответить на тему
 

lector_87 ®

Стаж: 3 года 6 месяцев

Сообщений: 391

Симпатии: 348

--Код убийцы / Code of a Killer
1 сезон, 1-2 серия
-- Год выпуска: 2015
Страна: Великобритания
Жанр: драма
Продолжительность: 1 х ~60 мин
Субтитры: отсутствуют-Перевод: Профессиональный многоголосый закадровый (AlexFilm)
Режиссёр: Джеймс Стронг-В ролях: Дороти Эткинсон, Даррен Бэнкрофт, Лидия Роуз Бьюли, Пол Копли, Лоркан Кранич, Джаз Деол, Ширли Диксон, Нил Эдмонд, Фарзана Дуа Элахе, Роберт Гленистер-Описание: Сериал расскажет об открытии ДНК-дактилоскопии Алеком Джеффрисом, что помогло инспектору Дэвиду Бейкеру привлечь к ответу виновного в двойном убийстве. Основан на реальных событиях.-Релиз:
Перевод: Константин Кривоногов
Монтаж и сведение звука: Михаил Шорыгин
Роли озвучивали:
  • Татьяна Манетина
    Михаил Суслов
    Владимир Курдов
    Константин Погодаев-Качество: WEB-DLRip
    Формат: AVI
    Видео кодек: XviD
    Аудио кодек: MP3
    Видео: 720x400 (1.80:1), 23.976 fps, XviD ~1400 kbps avg, 0.20 bit/pixel
    Аудио Rus: 48 kHz, MPEG Layer 3, 2 ch, ~128.00 kbps
    Аудио Eng: 48 kHz, MPEG Layer 3, 2 ch, ~128.00 kbps-

    MediaInfo

    Формат : AVI
    Формат/Информация : Audio Video Interleave
    Размер файла : 780 Мбайт
    Продолжительность : 1 ч. 5 м.
    Общий поток : 1667 Кбит/сек
    Название фильма : Code of a Killer 1x01 @ AlexFilm
    Программа кодирования : VirtualDubMod 1.5.10.2 (build 2540/release)
    Библиотека кодирования : VirtualDubMod build 2540/release
    Видео
    Идентификатор : 0
    Формат : MPEG-4 Visual
    Профиль формата : Advanced [email protected]
    Параметр BVOP формата : Нет
    Параметр QPel формата : Нет
    Параметр GMC формата : Без точки перехода
    Параметр матрицы формата : Default (H.263)
    Идентификатор кодека : XVID
    Идентификатор кодека/Подсказка : XviD
    Продолжительность : 1 ч. 5 м.
    Битрейт : 1397 Кбит/сек
    Ширина : 720 пикселей
    Высота : 400 пикселей
    Соотношение сторон : 16:9
    Частота кадров : 25,000 кадров/сек
    Цветовое пространство : YUV
    Субдискретизация насыщенности : 4:2:0
    Битовая глубина : 8 бит
    Тип развёртки : Прогрессивная
    Метод сжатия : С потерями
    Бит/(Пиксели*Кадры) : 0.194
    Размер потока : 653 Мбайт (84%)
    Библиотека кодирования : XviD 73
    Аудио #1
    Идентификатор : 1
    Формат : MPEG Audio
    Версия формата : Version 1
    Профиль формата : Layer 3
    Режим : Joint stereo
    Расширение режима : MS Stereo
    Идентификатор кодека : 55
    Идентификатор кодека/Подсказка : MP3
    Продолжительность : 1 ч. 5 м.
    Вид битрейта : Постоянный
    Битрейт : 128 Кбит/сек
    Каналы : 2 канала
    Частота : 48,0 КГц
    Метод сжатия : С потерями
    Размер потока : 59,9 Мбайт (8%)
    Выравнивание : Соединение по промежуткам
    Продолжительность промежутка : 40 мс. (1,00 видеокадр)
    Время предзагрузки промежутка : 504 мс.
    Заголовок : Russian (AlexFilm)
    Библиотека кодирования : LAME3.99r
    Настройки программы : -m j -V 4 -q 3 -lowpass 18 -b 128
    Аудио #2
    Идентификатор : 2
    Формат : MPEG Audio
    Версия формата : Version 1
    Профиль формата : Layer 3
    Режим : Joint stereo
    Расширение режима : MS Stereo
    Идентификатор кодека : 55
    Идентификатор кодека/Подсказка : MP3
    Продолжительность : 1 ч. 5 м.
    Вид битрейта : Постоянный
    Битрейт : 128 Кбит/сек
    Каналы : 2 канала
    Частота : 48,0 КГц
    Метод сжатия : С потерями
    Размер потока : 59,9 Мбайт (8%)
    Выравнивание : Соединение по промежуткам
    Продолжительность промежутка : 40 мс. (1,00 видеокадр)
    Время предзагрузки промежутка : 504 мс.
    Заголовок : English
    Библиотека кодирования : LAME3.90.3

    Скриншоты



  • Последний раз редактировалось: lector_87 (2015-11-10 22:50), всего редактировалось 5 раз(а)

    Создавать темы 27-Апр-2015 23:48

    [Профиль]  [ЛС] 

    lector_87 ®

    Стаж: 3 года 6 месяцев

    Сообщений: 391

    Симпатии: 348

    2 серия финал

    Создавать темы 04-Май-2015 06:48

    [Профиль]  [ЛС] 

    Топик был перенесен из форума Сезон 2014-2015 в форум Минисериалы и Веб-сериалы
    saidali

    Создавать темы 07-Май-2015 13:15

     
    Показать сообщения:    
    Ответить на тему

    Текущее время: 17-Авг 11:06

    Часовой пояс: UTC + 5



    Вы не можете начинать темы
    Вы не можете отвечать на сообщения
    Вы не можете редактировать свои сообщения
    Вы не можете удалять свои сообщения
    Вы не можете голосовать в опросах
    Вы не можете прикреплять файлы к сообщениям
    Вы не можете скачивать файлы