Непоседа Зу / Zou / Сезон: 1 / Серии: 1-52 из 52 (Оливье Леларду / Olivier Lelardoux) [2012-2013, Мультсериал, детский, семейный, SATRip] Dub

Ответить на тему
 

Ирина ®

Стаж: 3 года 7 месяцев

Сообщений: 57

Симпатии: 11

Непоседа Зу / ZouВНИМАНИЕ!!! Торрент перезалит - добавлены недостающие серии -Страна: Франция, Сингапур, Cyber Group Studios, Scrawl Studios
Жанр: Мультсериал, детский, семейный
Продолжительность: 52 х ~ 00:11:00
Год выпуска: 2012-2013
Перевод: Профессиональный (дублированный)
Русские субтитры: нет-Режиссёр: Оливье Леларду / Olivier Lelardoux-Описание: Зу – весёлый малыш зебра. Каждый день вместе с подругой Элзи пятилетний Зу познает мир и делает удивительные открытия. Со всеми трудностями малютке помогают справиться заботливые папа, мама и домашняя любимица – птичка Пок. Зу с удовольствием учится читать и считать, придумывает интересные игры и помогает родителям. В доме семейства зебр всегда царит атмосфера уюта и добра!-Качество: DVDRip
Формат: AVI
Видео: 704x384 (1.83:1), 25 fps, XviD build 65 ~1499 kbps avg, 0.22 bit/pixel
Аудио: 48 kHz, AC3 Dolby Digital, 2/0 (L,R) ch, ~192 kbps
Субтитры: отсутствуют

Список серий

Артисты цирка / Zou's Circus
Большая распродажа / Zou's Garage Sale
Будущая профессия / Zou the Mountaineering
Важное обещание / Zou's Promise
Весёлый подсолнух / Goldie the Sunflower
Возвращение кометы / Zou's Comet
Встреча с врачом / Zou and the Doctor
Гонка в саду / The Big Race
День без электричества / Zou and the Power
День воды / Zou's Bucket
Динозавр по имени Зонк / Zou and Zonk, the
Домашнее задание / Zou and the Camera
Зу уходит из дома / Zou Leaves Home
Клоун для Элзи / Zou the Clown
Когда за окном дождь / Zou's Rainy Day
Конкурс художников / Zou the Artist
Ловушка для слона / Zou and the Elephant Trap
Лучший друг зебры / Zou's Ant Farm
Маленький герой / Super Zou
На невиданной высоте / Zou Up High
Начинающий почтальон / Zou the Postman
Неуловимый робот / Zou's Robot
Новая подруга Зиннии / Zou and the Caterpillar
Охота на лакомства / The Halloween Hunt
Пираты и феи / Pirates and Fairies
Полосатые опасности / Zou and the Stripey
Последний день каникул / The Very Windy Day
Поход на задний двор / Zou goes Camping
Приятные воспоминания / Zou's Teething Ring
Прогулка с друзьями / Zou's Trip
Путешествие на Марс / Zou's Mission to Mars
Работа для детектива / Zou the Detective
Радужная история / Zou's Rainbow
Рация для бабушки / Zou's Walkie Talkie
Самодельный аквариум / Zou's Aquarium
Сладкий конкурс / Zou's Cherry Pie
Сломанная игрушка / Zou Owns Up
Сломанный велосипед / Zou's Bicycle
Спектакль своими руками / Zou's Pantomime
Суматоха в саду / Zou's Scarecrow
Талантливый репортёр / The Daily Zou
Танец для двоих / Zou's Dance
Торт для мамы / Zou the Chef
Футбольный матч / Zou's Football Match
Хитрая сорока / Zou's Magpie
Шумный подарок / Zou's Drum
Юный волшебник / Zou the Magician
Добавлены серии:
Волшебное слово / Zou Says Sorry
День влюблённых / Zou's Valentine
Королевское решение / King Zou
Пещерная зебра / The Fancy Dress Party
Погоня за кроликом / Zou and the Easter Bunny

Скриншоты




MI

General
Complete name                            : 01. Торт для мамы.avi
Format                                   : AVI
Format/Info                              : Audio Video Interleave
File size                                : 132 MiB
Duration                                 : 10mn 48s
Overall bit rate                         : 1 702 Kbps
Writing application                      : VirtualDubMod 1.5.10.3
Writing library                          : VirtualDubMod build 2550/release
Video
ID                                       : 0
Format                                   : MPEG-4 Visual
Format profile                           : Advanced Simple@L5
Format settings, BVOP                    : 1
Format settings, QPel                    : No
Format settings, GMC                     : No warppoints
Format settings, Matrix                  : Custom
Codec ID                                 : XVID
Codec ID/Hint                            : XviD
Duration                                 : 10mn 48s
Bit rate                                 : 1 500 Kbps
Width                                    : 704 pixels
Height                                   : 384 pixels
Display aspect ratio                     : 1.85:1
Frame rate                               : 25.000 fps
Color space                              : YUV
Chroma subsampling                       : 4:2:0
Bit depth                                : 8 bits
Scan type                                : Progressive
Compression mode                         : Lossy
Bits/(Pixel*Frame)                       : 0.222
Stream size                              : 116 MiB (88%)
Writing library                          : XviD 65
Audio
ID                                       : 1
Format                                   : AC-3
Format/Info                              : Audio Coding 3
Mode extension                           : CM (complete main)
Format settings, Endianness              : Big
Codec ID                                 : 2000
Duration                                 : 10mn 48s
Bit rate mode                            : Constant
Bit rate                                 : 192 Kbps
Channel(s)                               : 2 channels
Channel positions                        : Front: L R
Sampling rate                            : 48.0 KHz
Bit depth                                : 16 bits
Compression mode                         : Lossy
Stream size                              : 14.9 MiB (11%)
Alignment                                : Split accross interleaves
Interleave, duration                     : 40 ms (1.00 video frame)
Interleave, preload duration             : 500 ms


Последний раз редактировалось: Ирина (2015-06-26 02:36), всего редактировалось 7 раз(а)

Создавать темы 28-Апр-2015 10:48

[Профиль]  [ЛС] 

Ирина ®

Стаж: 3 года 7 месяцев

Сообщений: 57

Симпатии: 11

Релиз во "временных". Что подправить, чтобы попасть в "мультсериалы"? К какому модератору обратиться за помощью? bc

Создавать темы 28-Апр-2015 11:34

[Профиль]  [ЛС] 
Показать сообщения:    
Ответить на тему

Текущее время: 22-Авг 19:38

Часовой пояс: UTC + 5



Вы не можете начинать темы
Вы не можете отвечать на сообщения
Вы не можете редактировать свои сообщения
Вы не можете удалять свои сообщения
Вы не можете голосовать в опросах
Вы не можете прикреплять файлы к сообщениям
Вы не можете скачивать файлы