Аякаси: Классика японских ужасов / Ayakashi: Japanese Classic Horror (Имадзава Тэцуо, Накамура Кэндзи) [TV][11 из 11][без хардсаба][RUS(ext),JAP+SUB] [2006 г., ужасы, фэнтези, романтика, драма, DVDRip]

Ответить на тему
 

Deadушка ®

Стаж: 6 лет 7 месяцев

Сообщений: 78

Симпатии: 89

-- Год выпуска: 2006
Жанр: ужасы, фэнтези, романтика, драма
Тип: TV
Продолжительность: 11 эп. по 22 мин.-Режиссер: Имадзава Тэцуо, Накамура Кэндзи
Автор оригинала: Цуруя Намбоку-Студия: -Озвучка: Haruka (женская, одноголосая) (01-04 эп.) , Алекс Килька (мужская, одноголосая) (05-11 эп.)
Перевод: sahua d (01-04 эп.) , Green_Gremlin (05-08 эп.) , Dipperman (09-11 эп.)
Редактура, ретайминг и оформление: Mats Graule-Lade-Информационные ссылки: AniDB || MyAnimeList || World Art-Описание: Yotsuya Ghost Story (1-ая арка)
Старинная японская легенда об ужасном возмездии за подлость и коварство. Потеряв работу после смерти хозяина, статный красавец-самурай Иэмон Тамия оказался в безденежьи с опостылевшей женой и вечно хнычущим младенцем на шее. Выход из положения нашёлся неожиданно - красота Иэмона сразила наповал молодую богатую даму, жившую по соседству, и она предложила самураю жениться на ней при условии, что Тамия избавится от нынешней жены...
The Legend of Tenshu (2-ая арка)
Разыскивая в лесной чаще улетевшего охотничьего сокола, молодой сокольничий Дзосёноскэ с удивлением обнаружил висящее на дереве роскошное женское кимоно. Не успел он сообразить, как оно оказалась в такой глуши, как из протекавшей рядом речушки вышла прекрасная обнажённая девушка. Смущённый парень извинился и поспешно ретировался. Он даже не подозревал, что чудом остался в живых - принцесса духов Томихимэ (а это была именно она) так засмотрелась на статного юношу, что позабыла убить его, как поступала обычно со всяким смертным. Эта короткая встреча, зажёгшая любовь в сердцах принцессы и красивого сокольничего, в корне изменила жизнь обоих, роковым образом повлияв на их судьбы и судьбы тех, кому они были дороги...
Bakeneko (3-ья арка)
В преддверии брачной церемонии молодая невеста внезапно падает замертво. Случайно (или нет?) оказавшийся в доме невесты странствующий торговец лекарств объяснил шокированным родственникам покойной, что её гибель - дело рук демона Бакэнэко, который не успокоится, пока не истребит весь род. Поиски причины ненависти монстра к семье поднимают воспоминания о тяжком грехе, совершённом её членами в далёком прошлом...-Качество: DVDRip
Тип видео: без хардсаба
Формат: MKV-Дорожки и внешние подключаемые файлы:
Видео: AVC, 8 bit, 720x480 (640x480), 23.976 кадр/сек, ~1800 кбит/сек
Аудио #1: Rus, MP3, 2 ch, 128 кбит/сек, 48 кГц - внешними файлами
Аудио #2: Jap, AC3, 2 ch, 224 кбит/сек, 48 кГц - в составе контейнера
Субтитры #1: Eng, VobSub - в составе контейнера
Субтитры #2: Rus, ASS - внешними файлами

Список эпизодов

01. Yotsuya Ghost Story. Часть 1.
02. Yotsuya Ghost Story. Часть 2.
03. Yotsuya Ghost Story. Часть 3.
04. Yotsuya Ghost Story. Часть 4.
05. The Legend of Tenshu. Часть 1.
06. The Legend of Tenshu. Часть 2.
07. The Legend of Tenshu. Часть 3.
08. The Legend of Tenshu. Часть 4.
09. Bakeneko. Часть 1.
10. Bakeneko. Часть 2.
11. Bakeneko. Часть 3.

Порядок просмотра

#01. Аякаси: Классика японских ужасов - ТВ (11 эп.), оригинальный сериал, 2006 г.
#02. Мононокэ - ТВ (12 эп.), продолжение третьей арки сериала, 2007 г.

Скриншоты


Доп. информация


• Чтобы смотреть с русской озвучкой, необходимо из папки "Sound [Haruka & Alex Kilka]" скопировать файлы в папку c видео. Далее, в зависимости от вашего плеера, воспользоваться этой инструкцией.
• Чтобы смотреть с субтитрами, необходимо из папки "Subs [sahua d & Green_Gremlin & Dipperman & Mats G-L]" скопировать файлы в папку с видео. Большинство плееров подгрузит их автоматически при открытии видео.

Подробные тех. данные 1 серии

General
Unique ID                      : 208811510342058623757784720152819679734 (0x9D17A2511AA2ED009E826626F0FC41F6)
Complete name                  : D:\анимэ\Ayakashi - Jaanese Classic Horror\[Utsukushii-Raws] Ayakashi - Japanese Classic Horror - 01 (DVD 720x480 H264 AC3 2.0 Chap Sub).mkv
Format                         : Matroska
Format version                 : Version 2
File size                      : 347 MiB
Duration                       : 22mn 31s
Overall bit rate               : 2 152 Kbps
Encoded date                   : UTC 2011-08-25 17:14:39
Writing application            : mkvmerge v3.2.0 ('Beginnings') built on Feb 12 2010 16:46:17
Writing library                : libebml v0.7.9 + libmatroska v0.8.1
Video
ID                             : 2
Format                         : AVC
Format/Info                    : Advanced Video Codec
Format profile                 : [email protected]
Format settings, CABAC         : Yes
Format settings, ReFrames      : 5 frames
Codec ID                       : V_MPEG4/ISO/AVC
Duration                       : 22mn 31s
Bit rate                       : 1 917 Kbps
Width                          : 720 pixels
Height                         : 480 pixels
Display aspect ratio           : 4:3
Frame rate                     : 23.976 fps
Standard                       : NTSC
Color space                    : YUV
Chroma subsampling             : 4:2:0
Bit depth                      : 8 bits
Scan type                      : Progressive
Bits/(Pixel*Frame)             : 0.231
Stream size                    : 309 MiB (89%)
Writing library                : x264 core 115 r1995 c1e60b9
Encoding settings              : cabac=1 / ref=5 / deblock=1:-1:-2 / analyse=0x3:0x113 / me=esa / subme=9 / psy=1 / psy_rd=1.00:0.00 / mixed_ref=1 / me_range=32 / chroma_me=1 / trellis=2 / 8x8dct=1 / cqm=0 / deadzone=21,11 / fast_pskip=0 / chroma_qp_offset=-2 / threads=6 / sliced_threads=0 / nr=0 / decimate=1 / interlaced=0 / bluray_compat=0 / constrained_intra=0 / bframes=3 / b_pyramid=0 / b_adapt=2 / b_bias=-1 / direct=3 / weightb=1 / open_gop=0 / weightp=2 / keyint=250 / keyint_min=23 / scenecut=40 / intra_refresh=0 / rc_lookahead=50 / rc=crf / mbtree=1 / crf=15.0 / qcomp=0.70 / qpmin=10 / qpmax=51 / qpstep=4 / vbv_maxrate=50000 / vbv_bufsize=50000 / crf_max=0.0 / nal_hrd=none / ip_ratio=1.40 / aq=1:1.00
Language                       : English
Default                        : Yes
Forced                         : No
Audio
ID                             : 3
Format                         : AC-3
Format/Info                    : Audio Coding 3
Mode extension                 : CM (complete main)
Codec ID                       : A_AC3
Duration                       : 22mn 31s
Bit rate mode                  : Constant
Bit rate                       : 192 Kbps
Channel(s)                     : 2 channels
Channel positions              : Front: L R
Sampling rate                  : 48.0 KHz
Bit depth                      : 16 bits
Compression mode               : Lossy
Stream size                    : 30.9 MiB (9%)
Language                       : Japanese
Default                        : Yes
Forced                         : No
Text
ID                             : 1
Format                         : VobSub
Muxing mode                    : zlib
Codec ID                       : S_VOBSUB
Codec ID/Info                  : The same subtitle format used on DVDs
Language                       : English
Default                        : No
Forced                         : No
Menu
00:00:00.000                   : en:Opening
00:01:20.997                   : en:A-Part
00:11:11.087                   : en:B-Part
00:21:11.019                   : en:Ending


Последний раз редактировалось: Deadушка (2015-04-29 01:04), всего редактировалось 2 раз(а)

Создавать темы 28-Апр-2015 16:26

[Профиль]  [ЛС] 

daniellya

Стаж: 5 лет 8 месяцев

Сообщений: 338

Симпатии: 29

Но Аптекарь-это последняя арка...
Кстати, а где комментарии к сериям для обоих сериалов?

Создавать темы 28-Апр-2015 19:00

[Профиль]  [ЛС] 

Deadушка ®

Стаж: 6 лет 7 месяцев

Сообщений: 78

Симпатии: 89

933646Но Аптекарь-это последняя арка...
Кстати, а где комментарии к сериям для обоих сериалов?
Я не совсем понимаю, о чем ты!?

Создавать темы 28-Апр-2015 19:30

[Профиль]  [ЛС] 

daniellya

Стаж: 5 лет 8 месяцев

Сообщений: 338

Симпатии: 29

О, прилепил ещё обоев других арок, молодца
Я про комментарии к сериям, чего тут непонятно. К сериалам точно прилагались в pdf. (а где в ворде и .txt) пояснения к сериям, что где почему, откуда и на что отсылки.
Тут есть такая функция как прилепить файл к сообщению?

Создавать темы 28-Апр-2015 20:23

[Профиль]  [ЛС] 
Показать сообщения:    
Ответить на тему

Текущее время: 12-Дек 23:04

Часовой пояс: UTC + 5



Вы не можете начинать темы
Вы не можете отвечать на сообщения
Вы не можете редактировать свои сообщения
Вы не можете удалять свои сообщения
Вы не можете голосовать в опросах
Вы не можете прикреплять файлы к сообщениям
Вы не можете скачивать файлы