Наруто 10 фильм: Последний / The Last: Naruto the Movie (Кобаяси Цунэо) [RUS] [OVERLORDS] [2015 г., приключения, mkv] [720p]

Ответить на тему
 

Price ®

Стаж: 5 лет 3 месяца

Сообщений: 35

Симпатии: 5

Наруто 10 фильм: Последний / The Last: Naruto the Movie
Год выпуска: 2014 г.
Страна: Япония
Жанр:приключения
Тип: Movie
Продолжительность: 112 мин.
Перевод: Кобаяси Цунэо
Озвучка:
  • Overlords
Студия:
Режиссер: Кобаяси Цунэо
Описание:Новый десятый фильм о непобедимом Нарута , будет последним, а события происходящие в нём описаны после 699 серии манги. Не простой путь ниндзя и нашему главному герою пришлось пережить не мало на своём пути. Но за всё это время он так и не смог догадаться о любви к нему Хинаты. Как к ним приходит таинственный юноша зовут его Тонари. Он прибыл с целью взять в жёны Принцессу Бьякугана (так он назвал Хинату) и что бы не получить отказ , он похитил
её сестру Ханаби, что бы всё пошло, как он задумал. Ко всему прочему на земле начались катаклизмы и угроза большой катастрофы глобального масштаба.
Качество: BDRip 720p
Формат: mkv
Видео: AVC, 1280х720(16/9), 900~ Kbps, 25.000fps, 8 bits
Аудио: mp3, 2 ch, 320кбит/с, 48000Hz

Screenshots:




MI

: E:\gta\[AniStar.ru]The Last - Naruto The Movie 10_OVERLORDS [720p].mkv
Format : Matroska
Format version : Version 4 / Version 2
File size : 979 MiB
Duration : 1h 51mn
Overall bit rate : 1 224 Kbps
Encoded date : UTC 2015-04-24 05:35:12
Writing application : mkvmerge v7.1.0 ('Good Love') 64bit built on Jul 27 2014 13:06:55
Writing library : libebml v1.3.0 + libmatroska v1.4.1
DURATION : 01:51:46.896000000
NUMBER_OF_FRAMES : 279454
NUMBER_OF_BYTES : 268275840
_STATISTICS_WRITING_APP : mkvmerge v7.1.0 ('Good Love') 64bit built on Jul 27 2014 13:06:55
_STATISTICS_WRITING_DATE_UTC : 2015-04-24 05:35:12
_STATISTICS_TAGS : BPS DURATION NUMBER_OF_FRAMES NUMBER_OF_BYTES
Video
ID : 1
Format : AVC
Format/Info : Advanced Video Codec
Format profile : [email protected]
Format settings, CABAC : Yes
Format settings, ReFrames : 4 frames
Codec ID : V_MPEG4/ISO/AVC
Duration : 1h 51mn
Bit rate : 900 Kbps
Width : 1 280 pixels
Height : 720 pixels
Display aspect ratio : 16:9
Frame rate mode : Variable
Frame rate : 25.000 fps
Color space : YUV
Chroma subsampling : 4:2:0
Bit depth : 8 bits
Scan type : Progressive
Bits/(Pixel*Frame) : 0.039
Stream size : 704 MiB (72%)
Writing library : x264 core 142 r2389 956c8d8
Encoding settings : cabac=1 / ref=1 / deblock=1:0:0 / analyse=0x3:0x3 / me=dia / subme=1 / psy=1 / psy_rd=1.00:0.00 / mixed_ref=0 / me_range=16 / chroma_me=1 / trellis=0 / 8x8dct=1 / cqm=0 / deadzone=21,11 / fast_pskip=1 / chroma_qp_offset=0 / threads=18 / lookahead_threads=3 / sliced_threads=0 / nr=0 / decimate=1 / interlaced=0 / bluray_compat=0 / constrained_intra=0 / bframes=3 / b_pyramid=2 / b_adapt=1 / b_bias=0 / direct=1 / weightb=1 / open_gop=0 / weightp=1 / keyint=250 / keyint_min=25 / scenecut=40 / intra_refresh=0 / rc=abr / mbtree=0 / bitrate=900 / ratetol=1.0 / qcomp=0.60 / qpmin=0 / qpmax=69 / qpstep=4 / ip_ratio=1.40 / pb_ratio=1.30 / aq=1:1.00
Audio
ID : 2
Format : MPEG Audio
Format version : Version 1
Format profile : Layer 3
Mode : Joint stereo
Codec ID : A_MPEG/L3
Codec ID/Hint : MP3
Duration : 1h 51mn
Bit rate mode : Constant
Bit rate : 320 Kbps
Channel(s) : 2 channels
Sampling rate : 48.0 KHz
Compression mode : Lossy
Stream size : 256 MiB (26%)


Последний раз редактировалось: Price (2015-04-29 01:08), всего редактировалось 3 раз(а)

Создавать темы 28-Апр-2015 23:17

[Профиль]  [ЛС] 

Monroe

Стаж: 4 года 6 месяцев

Сообщений: 220

Симпатии: 62

Price, Можна ли надеяться на много. проф. дубли. озвучку?

Создавать темы 29-Апр-2015 12:53

[Профиль]  [ЛС] 

SNIL

Стаж: 5 лет 11 месяцев

Сообщений: 2624

Симпатии: 341

Monroe, P.S Озвучка отстой (я тоже именно это скачал с внешки:)

Создавать темы 29-Апр-2015 17:16

[Профиль]  [ЛС] 

Price ®

Стаж: 5 лет 3 месяца

Сообщений: 35

Симпатии: 5

933836Monroe, P.S Озвучка отстой (я тоже именно это скачал с внешки:)
ахах но ти скачал это главное =))))) ти знал што отстой но всё равно скачал ;D

Создавать темы 29-Апр-2015 17:18

[Профиль]  [ЛС] 

SNIL

Стаж: 5 лет 11 месяцев

Сообщений: 2624

Симпатии: 341

Price, Хэшь совпал! Помогу с раздачей!

Создавать темы 29-Апр-2015 19:16

[Профиль]  [ЛС] 

farik9193

Стаж: 5 лет 1 месяц

Сообщений: 501

Симпатии: 47

Яж с 5 класса смотрю Наруто и вот конец . Начинал со школы вот шас в универе и до сих пор смотрю .

Создавать темы 30-Апр-2015 21:50

[Профиль]  [ЛС] 

lone.wolf

Стаж: 2 года 7 месяцев

Сообщений: 8

дайте скорость плизз((

Создавать темы 28-Май-2015 15:00

[Профиль]  [ЛС] 
Показать сообщения:    
Ответить на тему

Текущее время: 13-Дек 00:59

Часовой пояс: UTC + 5



Вы не можете начинать темы
Вы не можете отвечать на сообщения
Вы не можете редактировать свои сообщения
Вы не можете удалять свои сообщения
Вы не можете голосовать в опросах
Вы не можете прикреплять файлы к сообщениям
Вы не можете скачивать файлы