Во все тяжкие / Breaking Bad / Сезон: 4 / Серии: 1-13 из 13 + Доп. материалы (Винс Гиллиган) [2011, триллер, драма, криминал, WEB-DL 720p] (MVO : LostFilm) (MVO : Кубик в Кубе) (rus sub + Original)

Ответить на тему
 

IIpu3pak ®

Стаж: 5 лет 6 месяцев

Сообщений: 258

Симпатии: 53

Во все тяжкие / Breaking Bad
Сезон 4

Год выпуска: 2011
Страна: США
Жанр: триллер, драма, криминал
Продолжительность: 00:48:00
Перевод: 1) Профессиональный (многоголосый, закадровый) - студия LostFilm
2) Профессиональный (многоголосый, закадровый) - студия Кубик в Кубе
3) Оригинал (английский)
Субтитры: Русские / Английские
Режиссёр: Винс Гиллиган
В ролях: Брайан Крэнстон, Анна Ганн, Аарон Пол, Дин Норрис, Бетси Брандт, Эр Джей Митти
Описание: Школьный учитель химии Уолтер Уайт узнаёт, что болен раком лёгких. Учитывая сложное финансовое состояние дел семьи, а также перспективы, Уолтер решает заняться изготовлением метамфетамина. Для этого он привлекает своего бывшего ученика Джесси Пинкмана, когда-то исключённого из школы при активном содействии Уайта. Пинкман сам занимался «варкой мета», но накануне, в ходе рейда ОБН, он лишился подельника и лаборатории…
Ссылки на предыдущие три сезона:
Сезон 1
Сезон 2
Сезон 3
Качество: WEB-DL 720p
Формат: MKV
Видео кодек: H.264
Аудио кодек: AC3
Видео: 1280x720, 3 960 Kbps, 16:9, 23.976 fps, Bits/Pixel : 0.179
Аудио#1: 48 kHz, AC3, 3/2 (L,C,R,l,r) + LFE ch, ~448.00 kbps avg | Русский, многоголосый закадровый (LostFilm)
Аудио #2: 48 kHz, AC3, 3/2 (L,C,R,l,r) + LFE ch, ~448.00 kbps avg | Русский, многоголосый закадровый (Кубик в Кубе)
Аудио #3: 48 kHz, AC3, 3/2 (L,C,R,l,r) + LFE ch, ~448.00 kbps avg | Английский, оригинальная дорожка
 

Список серий

01: Box Cutter / Канцелярский нож
02: Thirty-Eight Snub / 38 Калибр
03: Open House / День Открытых Дверей
04: Bullet Points / Ключевые Моменты (Пулевые Отверстия)
05: Shotgun / Дробовик
06: Cornered / Припёртые к стенке
07: Problem Dog / Хромой Пёс
08: Hermanos / Братья
09: Bug / Жучок
10: Salud / На Здоровье!
11: Crawl Space / Подпол
12: End Times / Пора Заканчивать
13: Face Off / Без Лица|

Знаете ли Вы, что...

Сериал вошел в Книгу рекордов Гиннесcа 2014 года как «сериал с самым высоким рейтингом» после того, как он набрал 99 баллов из 100 на портале MetaCritic.
Первый сезон должен был состоять из девяти эпизодов, но по причине забастовки сценаристов было снято только семь.
Главный герой сериала Уолтер Уайт в криминальном мире известен под псевдонимом Гейзенберг (либо Хайзенберг) (нем. Heisenberg), отсылающим к имени нобелевского лауреата по физике 1932 года Вернера Карла Гейзенберга (нем. Werner Karl Heisenberg).
Во вступительных титрах показываются: формула метамфетамина (C10 H15 N); его молекулярная масса 149,24; в заглавных буквах имен и в самой заставке сериала демонстрируются некоторые химические элементы.
Исполнитель роли Уолтера-младшего RJ Митт, как и его персонаж, живет с церебральным параличом.
О сериале высоко отозвался писатель Стивен Кинг, сказав, что это лучший сценарий на ТВ.
Фамилии Уолтера и Джесси — Уайт (англ. White) и Пинкман (англ. Pinkman) — являются отсылкой к фильму Квентина Тарантино «Бешеные псы» (1991).
В комментариях к DVD с первым сезоном Винс Гиллиган рассказал, что в первоначальном варианте персонаж Джесси Пинкмана должен был умереть к концу сезона. Однако создатели изменили решение, оценив игру Аарона Пола.
Во 2-ом эпизоде 1-го сезона (Cat`s in the bag) когда Джесси сидит и думает, что делать с Эмилио, по телевизору идет фильм «Фокус-покус» (1949).
Сайт адвоката Сола Гудмана (bettercallsaul.com) существует на самом деле.
Сайт «Спасем Уолтера Уайта», созданный во втором сезоне Уолтером-младшим, действительно существует (http://www.savewalterwhite.com/)
Во время съемок эпизода «Полумеры» Венди должна была изображать проститутку на улице. Один из случайных прохожих принял ее за настоящую «жрицу любви» и пытался договориться о цене. В связи с этим недоразумением съемки пришлось немного отложить
В 13 серии 3 сезона в квартире Гейла можно заметить книгу Стивена Кинга, сборник рассказов «Все предельно»

MI

General
Unique ID : 250331334321247208705470052243347281164 (0xBC540FAFF72A06C6919B445DF9FB150C)
Complete name : D:\Breaking Bad Season 4 HD\Breaking.Bad.4x01.Box.Cutter.WEB-DL.720p.DD5.1.HDCLUB.-lostrator.mkv
Format : Matroska
Format version : Version 2
File size : 1.76 GiB
Duration : 47mn 9s
Overall bit rate : 5 338 Kbps
Movie name : Breaking Bad 4x01 - Box Cutter @ [HDCLUB.org] by lostrator
Encoded date : UTC 2011-07-21 15:43:38
Writing application : mkvmerge v4.8.0 ('I Got The...') сборка от May 24 2011 03:12:58
Writing library : libebml v1.2.0 + libmatroska v1.1.0
Attachements : calibri.ttf / Candara.ttf / Century Gothic.ttf / DOMCASL.TTF / GARA.TTF / GOTHIC.TTF / HermesCTT Regular.Ttf / Simeiz Bold.Ttf / Simeiz Normal.Ttf / tahoma.ttf
Video
ID : 1
Format : AVC
Format/Info : Advanced Video Codec
Format profile : [email protected]
Format settings, CABAC : No
Format settings, ReFrames : 2 frames
Codec ID : V_MPEG4/ISO/AVC
Duration : 47mn 9s
Bit rate : 3 952 Kbps
Width : 1 280 pixels
Height : 720 pixels
Display aspect ratio : 16:9
Frame rate mode : Constant
Frame rate : 23.976 fps
Color space : YUV
Chroma subsampling : 4:2:0
Bit depth : 8 bits
Scan type : Progressive
Bits/(Pixel*Frame) : 0.179
Stream size : 1.30 GiB (74%)
Title : BrBa 4x01 - Box Cutter @ lostrator
Language : English
Default : Yes
Forced : No
Color primaries : BT.709
Transfer characteristics : BT.709
Matrix coefficients : BT.709
Color range : Limited
Audio #1
ID : 2
Format : AC-3
Format/Info : Audio Coding 3
Mode extension : CM (complete main)
Format settings, Endianness : Big
Codec ID : A_AC3
Duration : 47mn 9s
Bit rate mode : Constant
Bit rate : 448 Kbps
Channel(s) : 6 channels
Channel positions : Front: L C R, Side: L R, LFE
Sampling rate : 48.0 KHz
Bit depth : 16 bits
Compression mode : Lossy
Stream size : 151 MiB (8%)
Title : Dolby Digital 5.1 @ 448 kbps @ Lostfilm (c)
Language : Russian
Default : Yes
Forced : No
Audio #2
ID : 3
Format : AC-3
Format/Info : Audio Coding 3
Mode extension : CM (complete main)
Format settings, Endianness : Big
Codec ID : A_AC3
Duration : 47mn 9s
Bit rate mode : Constant
Bit rate : 448 Kbps
Channel(s) : 6 channels
Channel positions : Front: L C R, Side: L R, LFE
Sampling rate : 48.0 KHz
Bit depth : 16 bits
Compression mode : Lossy
Stream size : 151 MiB (8%)
Title : Dolby Digital 5.1 @ 448 kbps @ Kubik-V-Kube
Language : Russian
Default : No
Forced : No
Audio #3
ID : 4
Format : AC-3
Format/Info : Audio Coding 3
Mode extension : CM (complete main)
Format settings, Endianness : Big
Codec ID : A_AC3
Duration : 47mn 9s
Bit rate mode : Constant
Bit rate : 384 Kbps
Channel(s) : 6 channels
Channel positions : Front: L C R, Side: L R, LFE
Sampling rate : 48.0 KHz
Bit depth : 16 bits
Compression mode : Lossy
Stream size : 130 MiB (7%)
Title : Dolby Digital 5.1 @ 384 kbps
Language : English
Default : No
Forced : No
Text #1
ID : 5
Format : ASS
Codec ID : S_TEXT/ASS
Codec ID/Info : Advanced Sub Station Alpha
Compression mode : Lossless
Title : Russian @ ASS @ Forced
Language : Russian
Default : Yes
Forced : No
Text #2
ID : 6
Format : ASS
Codec ID : S_TEXT/ASS
Codec ID/Info : Advanced Sub Station Alpha
Compression mode : Lossless
Title : Russian @ ASS @ Full
Language : Russian
Default : No
Forced : No
Text #3
ID : 7
Format : ASS
Codec ID : S_TEXT/ASS
Codec ID/Info : Advanced Sub Station Alpha
Compression mode : Lossless
Title : Ukrainian @ ASS
Language : Ukrainian
Default : No
Forced : No
Text #4
ID : 8
Format : ASS
Codec ID : S_TEXT/ASS
Codec ID/Info : Advanced Sub Station Alpha
Compression mode : Lossless
Title : English @ ASS
Language : English
Default : No
Forced : No

Скриншоты














Создавать темы 28-Апр-2015 23:50

[Профиль]  [ЛС] 

IIpu3pak ®

Стаж: 5 лет 6 месяцев

Сообщений: 258

Симпатии: 53

Последний сезон, который имелся на харде. Пятого у меня, увы, нет. Если кому-нибудь интересно, то как только здесь наберется 3-4 скачавших, могу выложить первый сезон "Лучше звоните Солу" в таком же качестве.

Создавать темы 28-Апр-2015 23:55

[Профиль]  [ЛС] 

barista

Стаж: 4 года 10 месяцев

Сообщений: 11

Симпатии: 6

Куда делся релизер? Уже третий день закачка в простое стоит... Пожалуйста, вернитесь на раздачу.

Создавать темы 09-Сен-2015 18:49

[Профиль]  [ЛС] 
Показать сообщения:    
Ответить на тему

Текущее время: 20-Сен 16:00

Часовой пояс: UTC + 5



Вы не можете начинать темы
Вы не можете отвечать на сообщения
Вы не можете редактировать свои сообщения
Вы не можете удалять свои сообщения
Вы не можете голосовать в опросах
Вы не можете прикреплять файлы к сообщениям
Вы не можете скачивать файлы