Женский дом / GirlHouse (Тревор Мэтьюз / Trevor Matthews) [2014, Канада, Ужасы, Триллер, WEB-DLRip] MVO (Sunny-Films)

Ответить на тему
 

Suxrob89 ®

Стаж: 7 лет 1 месяц

Сообщений: 933

Симпатии: 564

-Женский дом / GirlHouse- Страна: Канада
Жанр: Ужасы, Триллер
Год выпуска: 2014
Продолжительность: 01:41:04
Перевод: Любительский (многоголосый закадровый) Sunny-Films
Cубтитры: нет
Оригинальная аудиодорожка: нет-Режиссер: Тревор Мэтьюз / Trevor Matthews-В ролях: Эли Кобрин, Адам ДиМарко, Слэйн, Элисон Бэт, Элисия Ротару, Элис Хантер, Чести Бальестерос, Николь Фокс, Зулейка Силвер, Уэсли МакИннес-Описание: Молодая студентка, отчаянно нуждающаяся в деньгах на обучение, начинает работу в доме, откуда ведутся трансляции порно. Но стоит обиженному рукоблуду фанату узнать его местоположение, как ей приходится бороться за свою жизнь.- -Качество видео: WEB-DLRip
Формат видео: AVI
Видео: 720x304 (2.37:1), 23.976 fps, XviD MPEG-4 ~1746 kbps avg, 0.33 bit/pixel
Аудио: 48 kHz, AC3 Dolby Digital, 2/0 (L,R) ch, ~192 kbps

MediaInfo

Format : AVI
Format/Info : Audio Video Interleave
File size : 1.37 GiB
Duration : 1h 41mn
Overall bit rate : 1 947 Kbps
Writing application : VirtualDubMod 1.5.10.3 | www.virtualdub-fr.org || (build 2550/release)
Writing library : VirtualDubMod build 2550/release
Video
ID : 0
Format : MPEG-4 Visual
Format profile : Advanced [email protected]
Format settings, BVOP : 2
Format settings, QPel : No
Format settings, GMC : No warppoints
Format settings, Matrix : Default (H.263)
Muxing mode : Packed bitstream
Codec ID : XVID
Codec ID/Hint : XviD
Duration : 1h 41mn
Bit rate : 1 746 Kbps
Width : 720 pixels
Height : 304 pixels
Display aspect ratio : 2.35:1
Frame rate : 23.976 fps
Color space : YUV
Chroma subsampling : 4:2:0
Bit depth : 8 bits
Scan type : Progressive
Compression mode : Lossy
Bits/(Pixel*Frame) : 0.333
Stream size : 1.23 GiB (90%)
Writing library : XviD 64
Audio
ID : 1
Format : AC-3
Format/Info : Audio Coding 3
Mode extension : CM (complete main)
Format settings, Endianness : Big
Codec ID : 2000
Duration : 1h 41mn
Bit rate mode : Constant
Bit rate : 192 Kbps
Channel(s) : 2 channels
Channel positions : Front: L R
Sampling rate : 48.0 KHz
Bit depth : 16 bits
Compression mode : Lossy
Stream size : 139 MiB (10%)
Alignment : Split accross interleaves
Interleave, duration : 42 ms (1.00 video frame)
Interleave, preload duration : 500 ms

Скриншот c названием фильма

Скриншоты











Создавать темы 29-Апр-2015 05:35

[Профиль]  [ЛС] 

Davron1402

Стаж: 3 года 8 месяцев

Сообщений: 136

Симпатии: 122

+18 ?

Создавать темы 29-Апр-2015 08:51

[Профиль]  [ЛС] 

(Eminem)

Стаж: 5 лет 3 месяца

Сообщений: 56

Симпатии: 6

933792+18 ?
Ты что.. это фильм для семейного просмотра.

Создавать темы 29-Апр-2015 09:09

[Профиль]  [ЛС] 

Seven_Sky

Стаж: 6 лет 8 месяцев

Сообщений: 431

Симпатии: 43

933792+18 ?
Скорее 17+. Тут таких сцен почти нет. Откровенных имею ввиду. Лишь мельком можно разглядеть "процесс".

Создавать темы 29-Апр-2015 09:36

[Профиль]  [ЛС] 
Показать сообщения:    
Ответить на тему

Текущее время: 20-Сен 23:03

Часовой пояс: UTC + 5



Вы не можете начинать темы
Вы не можете отвечать на сообщения
Вы не можете редактировать свои сообщения
Вы не можете удалять свои сообщения
Вы не можете голосовать в опросах
Вы не можете прикреплять файлы к сообщениям
Вы не можете скачивать файлы