Мифика: Задание для героев / Mythica: A Quest for Heroes (Энн К. Блэк) [2015, США, фэнтези, боевик, приключения, HDRip]

Ответить на тему
 

Каротажник ®

Стаж: 3 года 11 месяцев

Сообщений: 195

Симпатии: 211

Мифика: Задание для героев / Mythica: A Quest for Heroes Страна: США
Жанр: фэнтези, боевик, приключения-Год выпуска: 2015
Продолжительность: 01:32:35-Перевод: Профессиональное (многоголосное) Официальное
Режиссер: Энн К. Блэк-В ролях: Мелани Стоун, Адам Джонсон, Джейк Стормоен, Никки Поснер, Кристофер Робин Миллер, Кевин Сорбо, Натали Дивайн, Роберт Джейн, Майкл Флинн, Себастьян Майкл Барр
Описание: Молодая волшебница Марек мечтает о захватывающих приключениях. Отправляясь в путь она встречает жрицу Тилу, которая ищет свою пропавшую сестру. Вместе они отправляются на её поиски.- 
-Качество видео: HDRip
Формат видео: AVI-Видео: Xvid 720x400 23.976fps 1854kbps
Аудио: AC3 48000Hz stereo 384kbps

MediaInfo

General
Complete name : E:\kino\russ\Mifika.Zadanie.dlja.geroev.2015.avi
Format : AVI
Format/Info : Audio Video Interleave
File size : 1.45 GiB
Duration : 1h 32mn
Overall bit rate : 2 246 Kbps
Writing application : VirtualDubMod 1.5.10.2 (build 2540/release)
Writing library : VirtualDubMod build 2540/release
Video
ID : 0
Format : MPEG-4 Visual
Format profile : Advanced [email protected]
Format settings, BVOP : Yes
Format settings, QPel : No
Format settings, GMC : No warppoints
Format settings, Matrix : Custom
Codec ID : XVID
Codec ID/Hint : XviD
Duration : 1h 32mn
Bit rate : 1 854 Kbps
Width : 720 pixels
Height : 400 pixels
Display aspect ratio : 16:9
Frame rate : 23.976 fps
Color space : YUV
Chroma subsampling : 4:2:0
Bit depth : 8 bits
Scan type : Progressive
Compression mode : Lossy
Bits/(Pixel*Frame) : 0.269
Stream size : 1.20 GiB (83%)
Writing library : XviD 73
Audio
ID : 1
Format : AC-3
Format/Info : Audio Coding 3
Mode extension : CM (complete main)
Format settings, Endianness : Big
Codec ID : 2000
Duration : 1h 32mn
Bit rate mode : Constant
Bit rate : 384 Kbps
Channel(s) : 2 channels
Channel positions : Front: L R
Sampling rate : 48.0 KHz
Bit depth : 16 bits
Compression mode : Lossy
Stream size : 254 MiB (17%)
Alignment : Split accross interleaves
Interleave, duration : 42 ms (1.00 video frame)
Interleave, preload duration : 500 ms

Скриншоты


Создавать темы 29-Апр-2015 06:46

[Профиль]  [ЛС] 

sem

Стаж: 6 лет 11 месяцев

Сообщений: 123

Симпатии: 6

как фильм?отпешитесь пож!
Фильм не похож на ТВ3?

Создавать темы 30-Апр-2015 19:02

[Профиль]  [ЛС] 

manutd27

Стаж: 2 года 6 месяцев

Сообщений: 36

Симпатии: 24

934147как фильм?отпешитесь пож!
Фильм не похож на ТВ3?
по скринам еще как похож

Создавать темы 30-Апр-2015 20:50

[Профиль]  [ЛС] 

Alex Dancer

Стаж: 5 лет 8 месяцев

Сообщений: 181

Симпатии: 21

TB 3 - однозначно!!!
Рейтинг говорит очень красноречиво.

Создавать темы 04-Июн-2015 02:46

[Профиль]  [ЛС] 

Kraken

Стаж: 1 год 9 месяцев

Сообщений: 7

Симпатии: 9

Прикол да ЛОЖАНУЛИ разрабы левый нижний угол прям в глаза бросается

Создавать темы 17-Дек-2015 11:18

[Профиль]  [ЛС] 
Показать сообщения:    
Ответить на тему

Текущее время: 24-Сен 19:08

Часовой пояс: UTC + 5



Вы не можете начинать темы
Вы не можете отвечать на сообщения
Вы не можете редактировать свои сообщения
Вы не можете удалять свои сообщения
Вы не можете голосовать в опросах
Вы не можете прикреплять файлы к сообщениям
Вы не можете скачивать файлы